Download Now

Theander Expression - Wonderful Anticipation (2016)

Theander Expression - Wonderful Anticipation (2016)
EAC Rip | FLAC (Img) + Cue + Log ~ 364 Mb | MP3 CBR320 ~ 111 Mb
Scans (JPG, 600 dpi) ~ 57 Mb | RAR 5% Recovery
Melodic Hard Rock, AOR | AOR Heaven #AORH00128

Theander Expression is the AOR project by Swedish guitar player Andree Theander, who started to work with the first album in 2012 and released it one year later. It was called "Strange Nostalgia" after one of the songs and got critically acclaimed around the world of melodic rock in 2013. Just over two years later the follow-up is finally here and it carries the title "Wonderful Anticipation", as a kind of an antonym to the frequently misinterpreted debut title. The record was mixed and mastered by Thomas Plec Johansson at Panic Room Studios in the end of 2015 and the result is another high class rock record with classic melodies and a modern production, ready to hit the market in 2016...

~ amazon.com

Theander Expression is simply pure AOR with a touch of Westcoast. Andrée Theander, playing guitar among other instruments, taking care of songwriting and production appears to be multi-talented and displays a great sense for the flow an album. Faster songs like "Factoids & Fallacies" or "Never Surrender" perfectly blend with mid-tempo tunes ("Into The Valley" or "The Loner"). The last song on "Wonderful Anticipation", the acoustic "State Of Flow" complements the rest of the album in a different but interesting way. The production is highly pristine but powerful with a certain punch, at least considering the given genre. The two vocalists Christian Eriksson (Twilight Force) and Christopher Särnefält provide different vocal styles suiting the different songs pretty well. A serious competitor for top dogs like Work Of Art, Wigelius, Care Of Night, Lionville or Houston!
~ aorheaven.com
Track List:

01. Anticipation Anthem [02:31]
02. You Always Ran Away [04:01]
03. Wonderful Anticipation [04:46]
04. Ms. Trendy [03:57]
05. Factoids And Fallacies [04:01]
06. Into The Valley [04:07]
07. Never Surrender [03:24]
08. The Loner [04:55]
09. Someday (I'll Be There To Meet You) [04:47]
10. On My Own [04:41]
11. State Of Flow [04:55]

Personnel:

Andree Theander - guitars, bass, keyboards, programming, lead vocals on tracks 6, 8 & 11, backing vocals
Christian Eriksson - lead vocals on tracks 2, 5, 7, 9, 10 & 11, backing vocals
Christopher Sarnefalt - lead vocals on tracks 3 & 4, backing vocals
Erik Martensson - backing vocals
Kristofer von Wachenfeldt - keyboards
Herman Furin - drums, percussion
Bengan Andersson - drums
Sebastian Freij - cello on tracks 1 & 11

EAC Log


Exact Audio Copy V1.0 beta 3 from 29. August 2011

EAC extraction logfile from 5. March 2016, 19:12

Theander Expression / Wonderful Anticipation

Used drive : SlimtypeDVD A DS8A5SH Adapter: 0 ID: 0

Read mode : Secure
Utilize accurate stream : Yes
Defeat audio cache : Yes
Make use of C2 pointers : No

Read offset correction : 6
Overread into Lead-In and Lead-Out : No
Fill up missing offset samples with silence : Yes
Delete leading and trailing silent blocks : No
Null samples used in CRC calculations : Yes
Used interface : Installed external ASPI interface

Used output format : User Defined Encoder
Selected bitrate : 320 kBit/s
Quality : High
Add ID3 tag : No
Command line compressor : C:\Program Files (x86)\Exact Audio Copy\Flac\flac.exe
Additional command line options : -V -8 -T "Date=%year%" -T "Genre=%genre%" %source%

TOC of the extracted CD

Track | Start | Length | Start sector | End sector
-----------------------------
1 | 0:00.00 | 2:30.64 | 0 | 11313
2 | 2:30.64 | 4:00.59 | 11314 | 29372
3 | 6:31.48 | 4:45.53 | 29373 | 50800
4 | 11:17.26 | 3:56.71 | 50801 | 68571
5 | 15:14.22 | 4:00.30 | 68572 | 86601
6 | 19:14.52 | 4:06.24 | 86602 | 105075
7 | 23:21.01 | 3:23.53 | 105076 | 120353
8 | 26:44.54 | 4:54.45 | 120354 | 142448
9 | 31:39.24 | 4:46.68 | 142449 | 163966
10 | 36:26.17 | 4:40.52 | 163967 | 185018
11 | 41:06.69 | 4:54.72 | 185019 | 207140

Range status and errors

Selected range

Filename D:\My Music\Theander Expression - 2016 Wonderful Anticipation\Theander Expression - Wonderful Anticipation.wav

Peak level 97.5 %
Extraction speed 4.2 X
Range quality 100.0 %
Test CRC C3A36C7F
Copy CRC C3A36C7F
Copy OK

No errors occurred


AccurateRip summary

Track 1 not present in database
Track 2 not present in database
Track 3 not present in database
Track 4 not present in database
Track 5 not present in database
Track 6 not present in database
Track 7 not present in database
Track 8 not present in database
Track 9 not present in database
Track 10 not present in database
Track 11 not present in database

None of the tracks are present in the AccurateRip database

End of status report

==== Log checksum 31781FB1483A80EFD2190D036985F6E9125F06CFF0CE90BE0F58E0F2A9F5A296 ====

DR Log


foobar2000 1.2.6 / Dynamic Range Meter 1.1.1
log date: 2016-03-06 00:46:21

----------------------------------------
Analyzed: Theander Expression / Wonderful Anticipation
----------------------------------------

DR Peak RMS Duration Track
----------------------------------------
DR7 -0.22 dB -8.40 dB 2:31 01-Anticipation Anthem
DR6 -0.22 dB -7.51 dB 4:01 02-You Always Ran Away
DR7 -0.22 dB -8.07 dB 4:46 03-Wonderful Anticipation
DR7 -0.22 dB -8.19 dB 3:57 04-Ms. Trendy
DR6 -0.22 dB -7.34 dB 4:00 05-Factoids And Fallacies
DR7 -0.22 dB -8.09 dB 4:06 06-Into The Valley
DR7 -0.22 dB -7.37 dB 3:24 07-Never Surrender
DR7 -0.22 dB -7.99 dB 4:55 08-The Loner
DR7 -0.22 dB -8.04 dB 4:47 09-Someday (I'll Be There To Meet You)
DR6 -0.22 dB -7.70 dB 4:41 10-On My Own
DR8 -0.22 dB -9.33 dB 4:55 11-State Of Flow
----------------------------------------

Number of tracks: 11
Official DR value: DR7

Samplerate: 44100 Hz
Channels: 2
Bits per sample: 16
Bitrate: 1053 kbps
Codec: FLAC
================================================================================

CUETools Log


[CUETools log; Date: 06.03.2016 0:46:01; Version: 2.1.5]
[CTDB TOCID: 10saO6_ovAF_n.3P_VpzB2KFI78-] found.
Track | CTDB Status
1 | (1/2) Accurately ripped
2 | (1/2) Accurately ripped
3 | (1/2) Accurately ripped
4 | (1/2) Accurately ripped
5 | (1/2) Accurately ripped
6 | (1/2) Accurately ripped
7 | (1/2) Accurately ripped
8 | (1/2) Accurately ripped
9 | (1/2) Accurately ripped
10 | (1/2) Accurately ripped
11 | (1/2) Accurately ripped
[AccurateRip ID: 0011dcec-009d6e58-930ac90b] disk not present in database.

Track Peak [ CRC32 ] [W/O NULL] [ LOG ]
- 97,5 [C3A36C7F] [D965ADC4] CRC32
01 97,5 [82766359] [4C32ACF0]
02 97,5 [8B908033] AE79F7D
03 97,5 [42EFD0F2] [37F391BC]
04 97,5 [16EB90A9] [0473E6CF]
05 97,5 [2F90032A] [F15635AA]
06 97,5 [4FBF4571] [CD97D0B8]
07 97,5 [624BD15F] [827F23AD]
08 97,5 [9711E91B] [C2DACB33]
09 97,5 [17973FE1] [C79F0D57]
10 97,5 [FF99E0DE] [2BD71839]
11 97,5 39E128F [CEAABCD6]
Download link:

Buy Premium To Support Me & Get Resumable Support & Max Speed:



Links are Interchangeable - No Password - Single Extraction
Direct Download

Tags: Theander, Expression, Wonderful, Anticipation

Comments
Name:*
E-Mail:*
Add Comments:
Enter Code: *