Download Now

Charles Lloyd & The Marvels - I Long To See You (2016) {Blue Note}

Charles Lloyd & The Marvels - I Long to See You (2016) {Blue Note}
EAC 1.0b3 | FLAC tracks level 8 | Cue+Log+M3U | Full Scans 600dpi | 434MB + 5% Recovery
Genre: Jazz

Saxophonist Charles Lloyd has been working with guitarists periodically since the 1950s: Calvin Newborn, Gabor Szabo, John Abercrombie, and others have played in his bands. On I Long to See You, he (with his stellar rhythm section - bassist Reuben Rogers and drummer Eric Harland) renews that relationship with two gifted players: Bill Frisell and Greg Leisz (the latter on lap and pedal steel). This program yields folk and spiritual songs, re-recordings of Lloyd's own tunes, a pop nugget, and a new original. In what feels like the input from the label, there are two guest vocal appearances to boot: Willie Nelson beautifully delivers Ed McCurdy's antiwar classic "Last Night I Had the Strangest Dream," and Norah Jones.

Saxophonist Charles Lloyd has been working with guitarists periodically since the 1950s: Calvin Newborn, Gabor Szabo, John Abercrombie, and others have played in his bands. On I Long to See You, he (with his stellar rhythm section - bassist Reuben Rogers and drummer Eric Harland) renews that relationship with two gifted players: Bill Frisell and Greg Leisz (the latter on lap and pedal steel). This program yields folk and spiritual songs, re-recordings of Lloyd's own tunes, a pop nugget, and a new original. In what feels like the input from the label, there are two guest vocal appearances to boot: Willie Nelson beautifully delivers Ed McCurdy's antiwar classic "Last Night I Had the Strangest Dream," and Norah Jones offers a slow, dreamy reading of "You Are So Beautiful." I Long to See You feels more like a collaboration between Lloyd and Frisell than a leader date, which is sometimes problematic: these men can be overly deferential to one another. The album starts promisingly with a brooding read of Bob Dylan's "Masters of War" that threatens to explode at any moment.
Track List
01. Masters Of War
02. Of Course, Of Course
03. La Llorona
04. Shenandoah
05. Sombrero Sam
06. All My Trials
07. Last Night I Had The Strangest Dream [feat. Willie Nelson]
08. Abide With Me
09. You Are So Beautiful [feat. Norah Jones]
10. Barche Lamsel

musicians
Charles Lloyd - tenor saxophone, flute
Reuben Rogers - bass
Eric Harland - drums
Bill Frisell - guitar
Greg Leisz - steel guitar
Norah Jones - vocals on 9
Willie Nelson - vocals, guitar on 7

Produced by Charles Lloyd, Don Was and Dorothy Darr

EAC



Exact Audio Copy V1.0 beta 3 from 29. August 2011

EAC extraction logfile from 4. March 2016, 21:44

Charles Lloyd & The Marvels / I Long to See You

Used drive : PLEXTOR DVDR PX-L890SA Adapter: 5 ID: 1

Read mode : Secure
Utilize accurate stream : Yes
Defeat audio cache : Yes
Make use of C2 pointers : No

Read offset correction : 6
Overread into Lead-In and Lead-Out : No
Fill up missing offset samples with silence : Yes
Delete leading and trailing silent blocks : No
Null samples used in CRC calculations : Yes
Used interface : Native Win32 interface for Win NT & 2000
Gap handling : Appended to previous track

Used output format : User Defined Encoder
Selected bitrate : 128 kBit/s
Quality : High
Add ID3 tag : No
Command line compressor : C:\Program Files (x86)\Exact Audio Copy\FLAC\FLAC.EXE
Additional command line options : -8 -V -T "ARTIST=%artist%" -T "TITLE=%title%" -T "ALBUM=%albumtitle%" -T "DATE=%year%" -T "TRACKNUMBER=%tracknr%" -T "TOTALTRACKS=%numtracks%" -T "GENRE=%genre%" -T "ALBUMARTIST=%albumartist%" -T "ALBUM ARTIST=%albumartist%" -T "COMMENT=EAC Secure Mode, Test & Copy, AccurateRip, FLAC -8" %source%

TOC of the extracted CD

Track | Start | Length | Start sector | End sector
-----------------------------
1 | 0:00.00 | 8:05.18 | 0 | 36392
2 | 8:05.18 | 6:03.58 | 36393 | 63675
3 | 14:09.01 | 6:02.04 | 63676 | 90829
4 | 20:11.05 | 6:23.09 | 90830 | 119563
5 | 26:34.14 | 7:31.34 | 119564 | 153422
6 | 34:05.48 | 5:02.35 | 153423 | 176107
7 | 39:08.08 | 4:48.46 | 176108 | 197753
8 | 43:56.54 | 1:22.25 | 197754 | 203928
9 | 45:19.04 | 6:05.07 | 203929 | 231310
10 | 51:24.11 | 16:25.42 | 231311 | 305227

Track 1

Filename E:\01 - Masters of War.wav

Pre-gap length 0:00:02.00

Peak level 100.0 %
Extraction speed 4.4 X
Track quality 100.0 %
Test CRC 85EC63E5
Copy CRC 85EC63E5
Accurately ripped (confidence 3) [D41130EE] (AR v2)
Copy OK

Track 2

Filename E:\02 - Of Course, Of Course.wav

Pre-gap length 0:00:02.25

Peak level 100.0 %
Extraction speed 4.9 X
Track quality 100.0 %
Test CRC 54A13D91
Copy CRC 54A13D91
Accurately ripped (confidence 3) [975C116F] (AR v2)
Copy OK

Track 3

Filename E:\03 - La Llorona.wav

Pre-gap length 0:00:01.50

Peak level 100.0 %
Extraction speed 5.4 X
Track quality 100.0 %
Test CRC C9A79798
Copy CRC C9A79798
Accurately ripped (confidence 3) [1F091F27] (AR v2)
Copy OK

Track 4

Filename E:\04 - Shenandoah.wav

Pre-gap length 0:00:02.00

Peak level 100.0 %
Extraction speed 5.0 X
Track quality 99.9 %
Test CRC 64C18A4C
Copy CRC 64C18A4C
Accurately ripped (confidence 3) [29C4E31D] (AR v2)
Copy OK

Track 5

Filename E:\05 - Sombrero Sam.wav

Pre-gap length 0:00:01.65

Peak level 100.0 %
Extraction speed 6.3 X
Track quality 100.0 %
Test CRC 1616A686
Copy CRC 1616A686
Accurately ripped (confidence 3) [42B85457] (AR v2)
Copy OK

Track 6

Filename E:\06 - All My Trials.wav

Pre-gap length 0:00:02.10

Peak level 99.2 %
Extraction speed 5.4 X
Track quality 99.9 %
Test CRC 0EB84DE2
Copy CRC 0EB84DE2
Accurately ripped (confidence 3) [8687B38A] (AR v2)
Copy OK

Track 7

Filename E:\07 - Last Night, I Had the Strangest Dream (feat. Willie Nelson).wav

Pre-gap length 0:00:01.65

Peak level 100.0 %
Extraction speed 6.8 X
Track quality 100.0 %
Test CRC 272A8DDF
Copy CRC 272A8DDF
Accurately ripped (confidence 3) [59CD45D6] (AR v2)
Copy OK

Track 8

Filename E:\08 - Abide With Me.wav

Pre-gap length 0:00:00.20

Peak level 69.1 %
Extraction speed 3.3 X
Track quality 99.8 %
Test CRC 6E32728B
Copy CRC 6E32728B
Accurately ripped (confidence 3) [9CFAFE95] (AR v2)
Copy OK

Track 9

Filename E:\09 - You Are So Beautiful (feat. Norah Jones).wav

Peak level 83.7 %
Extraction speed 7.3 X
Track quality 100.0 %
Test CRC B4476DFE
Copy CRC B4476DFE
Accurately ripped (confidence 3) [AB93EB4D] (AR v2)
Copy OK

Track 10

Filename E:\10 - Barche Lamsel.wav

Pre-gap length 0:00:02.25

Peak level 100.0 %
Extraction speed 8.3 X
Track quality 100.0 %
Test CRC 9F2A3677
Copy CRC 9F2A3677
Accurately ripped (confidence 3) [FDFA4712] (AR v2)
Copy OK

All tracks accurately ripped

No errors occurred

End of status report

==== Log checksum 51D4BC8365F8F52EE08243935CBCC0CA0F1EEB8B25ABC8C0C645CE0293728C48 ====


Dynamic



----------------------------------------
Analyzed: Charles Lloyd & The Marvels / I Long to See You
----------------------------------------

DR Peak RMS Duration Track
----------------------------------------
DR13 0.00 dB -14.67 dB 8:05 01-Masters of War
DR11 0.00 dB -13.23 dB 6:04 02-Of Course, Of Course
DR11 0.00 dB -14.88 dB 6:02 03-La Llorona
DR13 0.00 dB -15.38 dB 6:23 04-Shenandoah
DR12 0.00 dB -15.74 dB 7:31 05-Sombrero Sam
DR14 -0.06 dB -16.42 dB 5:02 06-All My Trials
DR12 0.00 dB -14.33 dB 4:49 07-Last Night, I Had the Strangest Dream (feat. Willie Nelson)
DR10 -3.20 dB -18.71 dB 1:22 08-Abide With Me
DR14 -1.54 dB -18.62 dB 6:05 09-You Are So Beautiful (feat. Norah Jones)
DR10 0.00 dB -12.83 dB 16:26 10-Barche Lamsel
----------------------------------------

Number of tracks: 10
Official DR value: DR12

Samplerate: 44100 Hz
Channels: 2
Bits per sample: 16
Bitrate: 887 kbps
Codec: FLAC
================================================================================
Download link:

Buy Premium To Support Me & Get Resumable Support & Max Speed:



Links are Interchangeable - No Password - Single Extraction
Direct Download

Tags: Charles, Marvels

Comments
Name:*
E-Mail:*
Add Comments:
Enter Code: *