Download Now

Gilbert O'Sullivan - A Stranger In My Own Back Yard (1974) Remastered Reissue 2012

Gilbert O'Sullivan - A Stranger In My Own Back Yard (1974) Remastered Reissue 2012
EAC | FLAC | Image (Cue&Log) ~ 451 Mb (incl 5%) | Mp3 (CBR320) ~ 190 Mb (incl 5%) | Scans included
Genre: Singer/Songwriter, AM Pop, Soft Rock | Label: Salvo | # SALVOXCD004 | Time: 01:02:02

Digitally remastered and expanded edition of this 1974 album from the Irish/British singer/songwriter. Recorded in Los Angeles, Gilbert's fourth album, another UK Top Ten hit, is full of witty, carefully-crafted songs and very successfully blends his very British dancehall sensibility with a smooth West Coast feel. This remastered edition features seven non-album singles and hard-to-find B-sides as bonus tracks.

Gilbert O'Sullivan's fourth album, Stranger in My Own Backyard, was recorded in California (at the urging of American-based producer and manager Gordon Mills) in 1974, but only saw release that year on U.K. shores. The patchiest of O'Sullivan's early albums, Stranger occasionally finds its footing and delivers a witty and well-crafted song or two. "It's So Easy to Be Sad" merges traditional British dancehall gallop and American West Coast smoothness to great effect, and contains some of the best examples of well-planned lyrical phrasing O'Sullivan has ever put on record. "My Father" more closely follows the established template of his earlier outings, with its single piano and woozy horn providing just the right atmosphere for a tipsy ode to dear old dad. Like an Irish Harry Nilsson, O'Sullivan's songwriting often has the uncanny ability to illuminate and find humor in the everyday trials of common folk. Not every track seems to have been crafted as carefully as those two. Slap-dash efforts (both lyrically and musically) like "The Thing Is" and "15 Times" sound like filler (because they are) and the shockingly chauvinistic "A Woman's Place" (delivered without a trace of irony) probably did not go over very well in the decade of Helen Reddy's "I Am Woman." Low points aside, it's hard not to admit O'Sullivan's influence on later, crafty British songwriters like Andy Partridge, Graham "Suggs" McPherson, and Glenn Tilbrook, and for that, Stranger in My Own Backyard deserves a tip of the old cap.

Review by J. Scott McClintock, Allmusic.com

"A Stranger In My Own Backyard" is the 4th release in a full-on reissue campaign by Salvo Records of the UK for Irish singer-songwriter Raymond Gilbert O'Sullivan. His UK debut album "Himself" from 1971 was relaunched in November 2011, his second "Back To Front" from 1972 in February 2012 and his third from 1973 "I'm A Writer, Not A Fighter" in April 2012 (all are reviewed separately). With fantastic new sound, copious bonus tracks, quality packaging and a none-too steep pricetag - legions of his fans worldwide will be thrilled to see that his MAM Records catalogue is finally receiving a thorough going-over (and like the others - this release is artist-approved too). But in this case - I just wish the material matched the packaging...

Here are the finite details - UK released Monday 4 June 2012 (12 June 2012 in the USA) Salvo SALVOXCD004 breaks down as follows (62: 02 minutes):

Tracks 1 to 15 are his fourth studio album "A Stranger In My Own Back Yard" - released October 1974 in the UK on Mam Records MAM-SS 506 and on Mam Records MAM 10 in the USA. It peaked at 9 on the album charts in the UK - but didn't reach the top 200 in the USA.

Tracks 16 and 17 are "Happiness Is Me And You" and "Breakfast Dinner And Tea" - the A & B-sides of a non-album 7" single released February 1974 in the UK on Mam Records MAM 114 (it reached Number 19 on the single charts).

Track 18 is "Too Bad" - the non-album B-side of "A Woman's Place" - the first single lifted off the album. "A Woman's Place" was issued August 1974 in the UK on Mam Records MAM 122 and charted at Number 42.

Track 19 is "To Cut A Long Story Short" - the non-album B-side of "Christmas Song" - a 7" single released December 1974 in the UK on Mam Records MAM 124 (it peaked at Number 12). The A-side is missing and isn't on other CD reissues (an error no doubt).

Tracks 20 and 21 are "You Are You" and "Tell Me Why" - the A & B-sides of a non-album 7" single released January 1975 in the UK on Mam Records MAM 126 (it didn't chart).

Track 22 is "That's A Fact" - the non-album B-side to "I Don't Love You But I Think I Like You" - released May 1975 in the UK on Mam Records MAM 130 (it peaked at 14 on the charts). Again the non-album A-side is a no show and isn't on other CDs?

The original UK and US LP artwork by David Larkham was an elaborate affair - a cut-corners gatefold sleeve with 4 book-like leaves inside (he'd been responsible for the lavish LP covers of "Madman Across The Water", "Goodbye Yellow Brick Road" and "Captain Fantastic" for Elton John). All of it is repro'd either on the card digipak or in the beautifully laid-out 20-page colour booklet. The inlay features lyrics for all tracks (including the bonuses), photos of rare 7" foreign picture sleeves from all over the world, Japanese trade adverts, fanzine covers, snaps from the recording sessions. There are reminiscences on the album by Gilbert and thoughts on the disastrous US tour of late 1973 - and a paragraph-by-paragraph critique on each song by Chris Ingham (author of a "A Rough Guide To The Beatles"). There's even a 'Gilbert O'Sullivan - A Singer And His Songs' logo sticker on the front of the card digipak which accompanies all of these expanded reissues. A minor niggle would be that the Amazon photo seems to indicate that the card repro matches the cut-corner look of the original LP design - it doesn't - and neither does the booklet on the inside.

But the really big news for fans here is the AUDIO... Remastered from original master tapes - the sound quality is a vast improvement on what went before (compilations and expensive Japanese imports). Right from the off both the Intro "Number 4" and its follow up track "A Woman's Place" sound amazing. Unfortunately that's where the good news ends as far as the album is concerned. "A Woman's Place" is a cloying awful piece of pap that grated at the time too ("...a woman's place is in the home...") for God's sake. I'd argue that it single-handedly turned whole swaths of people off him and gave his begrudgers ammunition to dismiss his genuine song-writing capabilities. The arrangements on "It's Easy To Be Sad" are lovely while "My Father" harks back to the melodies and sound of the superb "Himself" debut album. And the "Get Down" boogie of "The Thing Is" should have been a single while "Just Like Me" shows sophistication in the arrangements. But there's the terribly preachy "Marriage Machine" and the mock jaunty "15 Times". The schooldays "I Wonder Would You Mind" is OK but too many tracks like "Nothing To Do About Much" and the terribly-worded album-finisher "Always Somebody" are cheesy and sounded dated on release - never mind 35 years later.

While the extras will finally allow fans to sequence rare 7" single releases on CD for the first time - another real downside here is the sloppy exclusion of the two 45s "Christmas Song" and "I Don't Love You But I Like You" (both of which charted). Having said that the bonuses have surprises like the b-sides "Too Bad" and "Tell Me Why" (lyrics above) - both as good as anything he'd done on the "Back To Front" and "I'm A Writer..." albums.

He followed 1974's "Stranger" with the equally forgotten "Southpaw" in 1977 - and wouldn't chart again with a proper album until he signed to CBS in 1980 and delivered the truly cringing "What's In A Kiss".

To sum up - while Salvo is to be praised for handling Gilbert's reissues so well - I just wish I could recommend this one.
What we have here is two to three-star material - and as much as I love the guy - I'd urge you get a listen in before you buy...

Review by Mark Barry, Amazon.co.uk


Tracklist:

01. Number 4 (01:24)
02. A Woman's Place (03:16)
03. No More (02:25)
04. It's So Easy To Be Sad (04:41)
05. My Father (02:42)
06. The Marriage Machine (03:27)
07. If You Ever (02:33)
08. The Thing Is (04:01)
09. Just Like Me (03:03)
10. Victor E (02:46)
11. I Wonder Would You Mind (02:18)
12. 15 Times (02:21)
13. Nothing To Do About Much (03:26)
14. Can't Get You To Love Me (02:25)
15. Always Somebody (00:52)

Bonus Tracks:

16. Happiness Is Me And You (03:10)
17. Breakfast Dinner And Tea (02:06)
18. Too Bad (03:12)
19. To Cut A Long Story Short (02:46)
20. You Are You (03:20)
21. Tell Me Why (02:58)
22. That's A Fact (02:39)


EAC log


Exact Audio Copy V1.1 from 23. June 2015

Отчёт EAC об извлечении, выполненном 14. февраля 2016, 12:49

Gilbert O'Sullivan / A Stranger In My Own Back Yard

Дисковод: ASUS DRW-24B3ST Adapter: 0 ID: 0

Режим чтения : Достоверность
Использование точного потока : Да
Отключение кэша аудио : Да
Использование указателей C2 : Нет

Коррекция смещения при чтении : 6
Способность читать области Lead-in и Lead-out : Нет
Заполнение пропущенных сэмплов тишиной : Да
Удаление блоков с тишиной в начале и конце : Нет
При вычислениях CRC использовались нулевые сэмплы : Да
Интерфейс : Установленный внешний ASPI-интерфейс

Выходной формат : Пользовательский кодировщик
Выбранный битрейт : 1024 kBit/s
Качество : Высокий
Добавление ID3-тега : Нет
Утилита сжатия : C:\Program Files (x86)\Exact Audio Copy\FLAC\FLAC.EXE
Дополнительные параметры : -6 -V -T "ARTIST=%artist%" -T "TITLE=%title%" -T "ALBUM=%albumtitle%" -T "DATE=%year%" -T "TRACKNUMBER=%tracknr%" -T "GENRE=%genre%" -T "COMMENT=%comment%" -T "BAND=%albuminterpret%" -T "ALBUMARTIST=%albuminterpret%" -T "COMPOSER=%composer%" %haslyrics%-tag-from-file=LYRICS="%lyricsfile%"%haslyrics% -T "DISCNUMBER=%cdnumber%" -T "TOTALDISCS=%totalcds%" -T "TOTALTRACKS=%numtracks%" %hascover%-picture="%coverfile%"%hascover% %source% -o %dest%

TOC извлечённого CD

Трек | Старт | Длительность | Начальный сектор | Конечный сектор
-----------------------------------
1 | 0:00.00 | 1:24.68 | 0 | 6367
2 | 1:24.68 | 3:16.58 | 6368 | 21125
3 | 4:41.51 | 2:25.70 | 21126 | 32070
4 | 7:07.46 | 4:41.61 | 32071 | 53206
5 | 11:49.32 | 2:42.64 | 53207 | 65420
6 | 14:32.21 | 3:27.62 | 65421 | 81007
7 | 18:00.08 | 2:33.24 | 81008 | 92506
8 | 20:33.32 | 4:01.24 | 92507 | 110605
9 | 24:34.56 | 3:03.43 | 110606 | 124373
10 | 27:38.24 | 2:46.21 | 124374 | 136844
11 | 30:24.45 | 2:18.66 | 136845 | 147260
12 | 32:43.36 | 2:21.01 | 147261 | 157836
13 | 35:04.37 | 3:26.44 | 157837 | 173330
14 | 38:31.06 | 2:25.10 | 173331 | 184215
15 | 40:56.16 | 0:52.41 | 184216 | 188156
16 | 41:48.57 | 3:10.46 | 188157 | 202452
17 | 44:59.28 | 2:06.58 | 202453 | 211960
18 | 47:06.11 | 3:12.67 | 211961 | 226427
19 | 50:19.03 | 2:46.19 | 226428 | 238896
20 | 53:05.22 | 3:20.03 | 238897 | 253899
21 | 56:25.25 | 2:58.37 | 253900 | 267286
22 | 59:23.62 | 2:39.10 | 267287 | 279221

Характеристики диапазона извлечения и сообщения об ошибках

Выбранный диапазон

Имя файла E:\Torrents\Gilbert O'Sullivan - 1974 - A Stranger In My Own Back Yard\Gilbert O'Sullivan - A Stranger In My Own Back Yard.wav

Пиковый уровень 98.2 %
Скорость извлечения 9.1 X
Качество диапазона 100.0 %
CRC теста E1D6775C
CRC копии E1D6775C
Копирование... OK

Ошибок не произошло

Конец отчёта

==== Контрольная сумма отчёта C6E242C77F38303243547122984B62D2DE67E721E5D65B4E6771210845FFEFEA ====

AR log


[CUETools log; Date: 02.03.2016 16:17:38; Version: 2.1.4]
[CTDB TOCID: wENuh_bRYcy77Tm_FtyyDcBdDlw-] found.
Track | CTDB Status
1 | (1/1) Accurately ripped
2 | (1/1) Accurately ripped
3 | (1/1) Accurately ripped
4 | (1/1) Accurately ripped
5 | (1/1) Accurately ripped
6 | (1/1) Accurately ripped
7 | (1/1) Accurately ripped
8 | (1/1) Accurately ripped
9 | (1/1) Accurately ripped
10 | (1/1) Accurately ripped
11 | (1/1) Accurately ripped
12 | (1/1) Accurately ripped
13 | (1/1) Accurately ripped
14 | (1/1) Accurately ripped
15 | (1/1) Accurately ripped
16 | (1/1) Accurately ripped
17 | (1/1) Accurately ripped
18 | (1/1) Accurately ripped
19 | (1/1) Accurately ripped
20 | (1/1) Accurately ripped
21 | (1/1) Accurately ripped
22 | (1/1) Accurately ripped
[AccurateRip ID: 0031a8d3-03180347-300e8a16] found.
Track [ CRC | V2 ] Status
01 [f14b5dce|2e778f4f] (0+7/7) Accurately ripped
02 [1ec09b32|d1fd59b7] (0+7/7) Accurately ripped
03 [639005b1|f4a1da26] (0+7/7) Accurately ripped
04 21008ed|dc880641 (0+7/7) Accurately ripped
05 [72cc8101|56454451] (0+7/7) Accurately ripped
06 [2c7ca030|751ae07f] (0+7/7) Accurately ripped
07 [de9f4094|765555f0] (0+7/7) Accurately ripped
08 [0b8b24bf|0edff20e] (0+7/7) Accurately ripped
09 [52da8f67|2abf33cb] (0+7/7) Accurately ripped
10 [28649aea|021e2336] (0+7/7) Accurately ripped
11 32756ae|69c9b0a7 (0+7/7) Accurately ripped
12 [7d5ddfb5|b71e975c] (0+7/7) Accurately ripped
13 9cd4be1|f9217de0 (0+7/7) Accurately ripped
14 [96d5192d|45996388] (0+7/7) Accurately ripped
15 [601f34fd|f741915e] (0+7/7) Accurately ripped
16 [28093c0e|b23a65d9] (0+7/7) Accurately ripped
17 [2871bf0b|c6a5a4ab] (0+7/7) Accurately ripped
18 3b0e2ae|27891bcf (0+7/7) Accurately ripped
19 [cdd413af|0c619703] (0+7/7) Accurately ripped
20 [7d37af81|ccac42cb] (0+7/7) Accurately ripped
21 [15972945|bc9c7d0e] (0+7/7) Accurately ripped
22 3a77f35|37ca97e9 (0+7/7) Accurately ripped

Track Peak [ CRC32 ] [W/O NULL] [ LOG ]
- 98,2 [E1D6775C] [CEB585E9] CRC32
01 98,2 [6E58FEC5] [4551CE50]
02 98,2 [5CC12172] [82DD3A59]
03 98,2 [0AAB1286] [92FF2D2D]
04 98,2 [7CFAA59C] [DC6C8572]
05 98,2 [165923FD] [E86252CC]
06 98,2 [00523537] [F449B14D]
07 98,2 [63CC2929] [46116214]
08 98,2 [3309855C] [5B4F42AC]
09 98,2 [97FC2C48] [03D1905A]
10 98,2 [2570BE1C] [A53AC5D3]
11 98,2 [536BD9D7] [5E6C5475]
12 98,2 [41C4471B] 0E1919A
13 98,2 [EFBDCB17] [29CD6708]
14 98,2 [382F21DA] [84725912]
15 98,2 [F7551F98] [436DF2DC]
16 90,1 [DF8FC97E] 82B9F92
17 98,2 F067194 [1A46C167]
18 98,2 [F03B38CD] [330C78E1]
19 98,2 [97E7B780] [84CF915C]
20 98,2 [86E6A726] [4F2B260A]
21 98,2 [7376F1FE] [7D5BC6FF]
22 98,2 [A65DF835] [05884B98]

DR log


foobar2000 1.2 / Dynamic Range Meter 1.1.1
log date: 2016-03-02 14:16:28

----------------------------------------
Analyzed: Gilbert O'Sullivan / A Stranger In My Own Back Yard
----------------------------------------

DR Peak RMS Duration Track
----------------------------------------
DR11 -0.16 dB -16.08 dB 1:25 01-Number 4
DR10 -0.16 dB -12.19 dB 3:17 02-A Woman's Place
DR10 -0.16 dB -12.38 dB 2:26 03-No More
DR10 -0.16 dB -12.00 dB 4:42 04-It's So Easy To Be Sad
DR11 -0.16 dB -14.44 dB 2:43 05-My Father
DR10 -0.16 dB -11.75 dB 3:28 06-The Marriage Machine
DR10 -0.16 dB -12.79 dB 2:33 07-If You Ever
DR10 -0.16 dB -12.15 dB 4:01 08-The Thing Is
DR9 -0.16 dB -11.79 dB 3:04 09-Just Like Me
DR10 -0.16 dB -12.23 dB 2:46 10-Victor E
DR12 -0.16 dB -14.84 dB 2:19 11-I Wonder Would You Mind
DR9 -0.16 dB -11.08 dB 2:21 12-15 Times
DR10 -0.16 dB -12.77 dB 3:27 13-Nothing To Do About Much
DR9 -0.16 dB -10.78 dB 2:25 14-Can't Get You To Love Me
DR12 -0.16 dB -16.52 dB 0:53 15-Always Somebody
DR8 -0.91 dB -11.91 dB 3:11 16-Happiness Is Me And You
DR10 -0.16 dB -12.36 dB 2:07 17-Breakfast Dinner And Tea
DR9 -0.16 dB -11.04 dB 3:13 18-Too Bad
DR10 -0.16 dB -11.34 dB 2:46 19-To Cut A Long Story Short
DR10 -0.16 dB -11.92 dB 3:20 20-You Are You
DR10 -0.16 dB -11.28 dB 2:58 21-Tell Me Why
DR10 -0.16 dB -10.81 dB 2:39 22-That's A Fact
----------------------------------------

Number of tracks: 22
Official DR value: DR10

Samplerate: 44100 Hz
Channels: 2
Bits per sample: 16
Bitrate: 880 kbps
Codec: FLAC
================================================================================ Password: designol
Download link:

Buy Premium To Support Me & Get Resumable Support & Max Speed:



Links are Interchangeable - No Password - Single Extraction
Direct Download

Tags: Gilbert, Sullivan, Stranger, Remastered, Reissue

Comments
Name:*
E-Mail:*
Add Comments:
Enter Code: *