Download Now

Christina Perri - Head Or Heart (2014) [Japan]

Christina Perri - Head Or Heart (2014)
EAC Rip | FLAC (Img) + Cue + Log ~ 398 Mb | MP3 CBR320 ~ 141 Mb
Scans (JPG, 600 dpi) ~ 75 Mb | RAR 5% Recovery
Pop, Dance | Atlantic #WPCR-15814

The second long-player from Christina Perri, the Los Angeles-based singer/songwriter responsible for penning the surprise 2010 hit "Jar of Hearts," Head or Heart picks right up where 2011's rushed yet brimming-with-potential Lovestrong left off. More confident than her debut, yet retaining much of its vulnerability, Perri, along with a quartet of producers who include Martin Johnson, Jake Gosling, John Hill, and Butch Walker, explores familiar singer/songwriter themes with a keen pop ear, wrapping big, radio-ready choruses inside folksy verses, effectively bridging the gap between the laid-back folk-pop of a Jewel or Norah Jones and the slick, American Idol montage-ready showboating of a Katy Perry or Sara Bareilles...

Track List:

01. Trust [03:33]
02. Burning Gold [03:45]
03. Be My Forever [feat. Ed Sheeran] [03:21]
04. Human [04:11]
05. One Night [03:07]
06. I Don't Wanna Break [03:54]
07. Sea Of Lovers [03:38]
08. The Words [04:15]
09. Lonely Child [03:46]
10. Run [04:21]
11. Butterfly [03:48]
12. Shot Me In The Heart [03:44]
13. I Believe [04:44]
14. Human (Passion pit remix) [05:05]
15. Human (EDX festival radio edit) [03:33]

EAC Log


Exact Audio Copy V1.0 beta 6 from 9. April 2015

Отчёт EAC об извлечении, выполненном 15. декабря 2015, 23:44

Christina Perri / Head Or Heart

Дисковод: SlimtypeDVD A DS8A9SH Adapter: 1 ID: 0

Режим чтения : Достоверность
Использование точного потока : Да
Отключение кэша аудио : Да
Использование указателей C2 : Нет

Коррекция смещения при чтении : 6
Способность читать области Lead-in и Lead-out : Нет
Заполнение пропущенных сэмплов тишиной : Да
Удаление блоков с тишиной в начале и конце : Нет
При вычислениях CRC использовались нулевые сэмплы : Да
Интерфейс : Встроенный Win32-интерфейс для Win NT/2000

Выходной формат : Пользовательский кодировщик
Выбранный битрейт : 128 kBit/s
Качество : Высокий
Добавление ID3-тега : Нет
Утилита сжатия : D:\Program Files (x86)\Exact Audio Copy\Flac\flac.exe
Дополнительные параметры : -V -8 -T "Date=%year%" -T "Genre=%genre%" %source%

TOC извлечённого CD

Трек | Старт | Длительность | Начальный сектор | Конечный сектор
-----------------------------------
1 | 0:00.00 | 3:32.20 | 0 | 15919
2 | 3:32.20 | 3:44.07 | 15920 | 32726
3 | 7:16.27 | 3:20.16 | 32727 | 47742
4 | 10:36.43 | 4:10.60 | 47743 | 66552
5 | 14:47.28 | 3:06.09 | 66553 | 80511
6 | 17:53.37 | 3:53.64 | 80512 | 98050
7 | 21:47.26 | 3:37.04 | 98051 | 114329
8 | 25:24.30 | 4:14.10 | 114330 | 133389
9 | 29:38.40 | 3:45.15 | 133390 | 150279
10 | 33:23.55 | 4:20.24 | 150280 | 169803
11 | 37:44.04 | 3:47.45 | 169804 | 186873
12 | 41:31.49 | 3:43.61 | 186874 | 203659
13 | 45:15.35 | 4:43.17 | 203660 | 224901
14 | 49:58.52 | 5:04.23 | 224902 | 247724
15 | 55:03.00 | 3:32.68 | 247725 | 263692

Характеристики диапазона извлечения и сообщения об ошибках

Выбранный диапазон

Имя файла D:\My Rips\Audio\Christina Perri - 2014 - Head Or Heart\Christina Perri - Head Or Heart.wav

Пиковый уровень 100.0 %
Скорость извлечения 4.5 X
Качество диапазона 99.9 %
CRC теста 1F545717
CRC копии 1F545717
Копирование... OK

Ошибок не произошло


AccurateRip: сводка

Трек 1 : извлечено точно (доверие 1) DA34486 (AR v2)
Трек 2 : извлечено точно (доверие 1) [DC993E85] (AR v2)
Трек 3 : извлечено точно (доверие 1) [54437A02] (AR v2)
Трек 4 : извлечено точно (доверие 1) [F41DBE98] (AR v2)
Трек 5 : извлечено точно (доверие 1) [C8980C8C] (AR v2)
Трек 6 : извлечено точно (доверие 1) [10A149A3] (AR v2)
Трек 7 : извлечено точно (доверие 1) [106CCF6F] (AR v2)
Трек 8 : извлечено точно (доверие 1) [1768EBBD] (AR v2)
Трек 9 : извлечено точно (доверие 1) [4B06FF93] (AR v2)
Трек 10 : извлечено точно (доверие 1) 9085C47 (AR v2)
Трек 11 : извлечено точно (доверие 1) [CFBB503B] (AR v2)
Трек 12 : извлечено точно (доверие 1) [F7C1495C] (AR v2)
Трек 13 : извлечено точно (доверие 1) [88E937D5] (AR v2)
Трек 14 : извлечено точно (доверие 1) [F1F9CFB4] (AR v2)
Трек 15 : извлечено точно (доверие 1) [258DA529] (AR v2)

Все треки извлечены точно

Конец отчёта

==== Контрольная сумма отчёта 51B88EEF9BB3F7C8B7AA95FB0AE44E7135F4D03BD104F5D7A5F6B33D9131461C ====

DR Log


foobar2000 1.2.6 / Dynamic Range Meter 1.1.1
log date: 2016-03-02 13:37:33

----------------------------------------
Analyzed: Christina Perri / Head Or Heart
----------------------------------------

DR Peak RMS Duration Track
----------------------------------------
DR9 0.00 dB -12.06 dB 3:32 01-Trust
DR6 0.00 dB -7.81 dB 3:44 02-Burning Gold
DR6 0.00 dB -7.71 dB 3:20 03-Be My Forever [feat. Ed Sheeran]
DR5 0.00 dB -8.64 dB 4:11 04-Human
DR6 0.00 dB -8.13 dB 3:06 05-One Night
DR4 0.00 dB -7.24 dB 3:54 06-I Don't Wanna Break
DR5 0.00 dB -8.31 dB 3:37 07-Sea Of Lovers
DR10 0.00 dB -12.00 dB 4:14 08-The Words
DR5 0.00 dB -7.17 dB 3:45 09-Lonely Child
DR6 0.00 dB -9.85 dB 4:20 10-Run
DR8 -0.05 dB -11.65 dB 3:48 11-Butterfly
DR6 0.00 dB -6.95 dB 3:44 12-Shot Me In The Heart
DR6 0.00 dB -8.82 dB 4:43 13-I Believe
DR5 0.00 dB -7.16 dB 5:04 14-Human (Passion pit remix)
DR4 -0.01 dB -5.27 dB 3:33 15-Human (EDX festival radio edit)
----------------------------------------

Number of tracks: 15
Official DR value: DR6

Samplerate: 44100 Hz
Channels: 2
Bits per sample: 16
Bitrate: 905 kbps
Codec: FLAC
================================================================================

CUETools Log


[CUETools log; Date: 02.03.2016 13:37:13; Version: 2.1.5]
[CTDB TOCID: tn7gDwy6bcqXLoj1JCox2ZPzxWI-] found.
Track | CTDB Status
1 | (1/1) Accurately ripped
2 | (1/1) Accurately ripped
3 | (1/1) Accurately ripped
4 | (1/1) Accurately ripped
5 | (1/1) Accurately ripped
6 | (1/1) Accurately ripped
7 | (1/1) Accurately ripped
8 | (1/1) Accurately ripped
9 | (1/1) Accurately ripped
10 | (1/1) Accurately ripped
11 | (1/1) Accurately ripped
12 | (1/1) Accurately ripped
13 | (1/1) Accurately ripped
14 | (1/1) Accurately ripped
15 | (1/1) Accurately ripped
[AccurateRip ID: 001f11c4-016343d1-c20dbb0f] found.
Track [ CRC | V2 ] Status
01 [6a44cb6c|bda34486] (0+2/2) Accurately ripped
02 [d3acfcd1|dc993e85] (0+2/2) Accurately ripped
03 [73a06897|54437a02] (0+2/2) Accurately ripped
04 [1103782c|f41dbe98] (0+2/2) Accurately ripped
05 [17a0a053|c8980c8c] (0+2/2) Accurately ripped
06 [956f6e38|10a149a3] (0+2/2) Accurately ripped
07 [750996e7|106ccf6f] (0+2/2) Accurately ripped
08 [ef4b6d3c|1768ebbd] (0+2/2) Accurately ripped
09 [51c040f3|4b06ff93] (0+2/2) Accurately ripped
10 [3dae9890|b9085c47] (0+2/2) Accurately ripped
11 [fa8df62b|cfbb503b] (0+2/2) Accurately ripped
12 [f53be740|f7c1495c] (0+2/2) Accurately ripped
13 [52beb1fe|88e937d5] (0+2/2) Accurately ripped
14 [aaf66487|f1f9cfb4] (0+2/2) Accurately ripped
15 [2930441f|258da529] (0+2/2) Accurately ripped

Track Peak [ CRC32 ] [W/O NULL] [ LOG ]
- 100,0 [1F545717] [8CCF24B5] CRC32
01 100,0 [D4B0B07B] [D8750B82]
02 100,0 [791FD1C0] [D93412C7]
03 100,0 [CF816290] [D3EB5194]
04 100,0 [DA61E161] [5FECACC6]
05 100,0 [24EAE6B4] 0A09153
06 100,0 [4E08084A] [74FF3EB7]
07 100,0 [3C9CE3AE] F8D824B
08 100,0 [A84FEBE2] [18B43551]
09 100,0 [5728C5B3] [C5F6531F]
10 100,0 [1D721714] 53CBDCC
11 99,4 [75B00E23] [979B7A88]
12 100,0 [1D5E8BA7] [F557B506]
13 100,0 [EF611329] [85C11116]
14 100,0 [434D13CA] [2E982462]
15 99,9 [CDF0455E] [9A070576]
Download link:

Buy Premium To Support Me & Get Resumable Support & Max Speed:



Links are Interchangeable - No Password - Single Extraction
Direct Download

Tags: Christina

Comments
Name:*
E-Mail:*
Add Comments:
Enter Code: *