Download Now

Era - Era (1996/1998)

Era - Era (1996/1998)
EAC Rip | FLAC (Img) + Cue + Log ~ 306 Mb | MP3 CBR320 ~ 112 Mb
Scans (PNG, 400 dpi) ~ 81 Mb | RAR 5% Recovery
New Age | Philips #538 711-2

Era is the eponymous debut album by Eric Lévi's new-age project Era, first released in 1996 and re-released in 1998. Era mixes Gregorian chants and occasionally world music with contemporary electronic arrangements. It is reminiscent of new-age music projects such as Enigma, Gregorian, and Deep Forest. Lyrics are written in Pseudo-Latin and English, and some are based on beliefs of the 13th century French Christian Catholic Apostolic Roman, the Cathars. The band has sold more than 12 million albums. They are best known for their singles "Ameno" and "Madona". Era's live shows and music videos often feature artists dressed in medieval or traditional clothes and armour. Usually, actors Pierre Bouisierie and Irene Bustamante perform at Era shows.

~ Wiki

Era's eponymous debut album may be a little too similar to Enigma for some tastes, but Eric Levi is a skilled producer who's capable of making engaging soundscapes. So even if Era doesn't sound groundbreaking, it doesn't sound bad either, and anyone who likes the hypnotic classical-dance fusion sound that was all the rage in the early '90s will find this quite entertaining.
~ Stephen Thomas Erlewine, All Music

Track List:

01. Ameno (Remix) [03:50]
02. Mother (Remix) [04:10]
03. Avemano [04:16]
04. Enae Volare Mezzo [03:49]
05. Misere Mani [04:05]
06. Cathar Rhythm [03:22]
07. Ameno [04:20]
08. Sempire d'Amor [01:53]
09. Mother [05:01]
10. Mirror [03:59]
11. Era [03:16]
12. Impera [04:38]

EAC Log


Exact Audio Copy V1.0 beta 6 from 9. April 2015

EAC extraction logfile from 18. April 2015, 16:12

Era / Era

Used drive : ASUS SDRW-08D2S-U Adapter: 1 ID: 3

Read mode : Secure
Utilize accurate stream : Yes
Defeat audio cache : Yes
Make use of C2 pointers : No

Read offset correction : 6
Overread into Lead-In and Lead-Out : No
Fill up missing offset samples with silence : Yes
Delete leading and trailing silent blocks : No
Null samples used in CRC calculations : Yes
Used interface : Native Win32 interface for Win NT & 2000

Used output format : Internal WAV Routines
Sample format : 44.100 Hz; 16 Bit; Stereo

TOC of the extracted CD

Track | Start | Length | Start sector | End sector
-----------------------------
1 | 0:00.00 | 3:49.57 | 0 | 17231
2 | 3:49.57 | 4:09.33 | 17232 | 35939
3 | 7:59.15 | 4:15.47 | 35940 | 55111
4 | 12:14.62 | 3:48.65 | 55112 | 72276
5 | 16:03.52 | 4:04.20 | 72277 | 90596
6 | 20:07.72 | 3:21.03 | 90597 | 105674
7 | 23:29.00 | 4:19.02 | 105675 | 125101
8 | 27:48.02 | 1:52.23 | 125102 | 133524
9 | 29:40.25 | 5:00.25 | 133525 | 156049
10 | 34:40.50 | 3:58.17 | 156050 | 173916
11 | 38:38.67 | 3:15.20 | 173917 | 188561
12 | 41:54.12 | 4:37.58 | 188562 | 209394

Range status and errors

Selected range

Filename C:\Music CD\Era - Era.wav

Peak level 100.0 %
Extraction speed 4.2 X
Range quality 100.0 %
Test CRC B377F96D
Copy CRC B377F96D
Copy OK

No errors occurred


AccurateRip summary

Track 1 accurately ripped (confidence 5) [65925693] (AR v2)
Track 2 accurately ripped (confidence 4) [3106A4BF] (AR v2)
Track 3 accurately ripped (confidence 5) [ABEA6922] (AR v2)
Track 4 accurately ripped (confidence 5) [68488D43] (AR v2)
Track 5 accurately ripped (confidence 4) E334CC8 (AR v2)
Track 6 accurately ripped (confidence 4) [F61078CA] (AR v2)
Track 7 accurately ripped (confidence 4) [8D0DEEC7] (AR v2)
Track 8 accurately ripped (confidence 4) [54DB5549] (AR v2)
Track 9 accurately ripped (confidence 4) [6F9418AF] (AR v2)
Track 10 accurately ripped (confidence 4) [51767958] (AR v2)
Track 11 accurately ripped (confidence 4) [ECC5CD4A] (AR v2)
Track 12 accurately ripped (confidence 4) [46F594C9] (AR v2)

All tracks accurately ripped

End of status report

-- CUETools DB Plugin V2.1.6

[CTDB TOCID: 1O1p4_vvLh70EFGVPgFgxLa8kx4-] found
Submit result: 1O1p4_vvLh70EFGVPgFgxLa8kx4- has been confirmed
Track | CTDB Status
1 | (15/15) Accurately ripped
2 | (15/15) Accurately ripped
3 | (15/15) Accurately ripped
4 | (15/15) Accurately ripped
5 | (15/15) Accurately ripped
6 | (15/15) Accurately ripped
7 | (15/15) Accurately ripped
8 | (15/15) Accurately ripped
9 | (15/15) Accurately ripped
10 | (15/15) Accurately ripped
11 | (15/15) Accurately ripped
12 | (15/15) Accurately ripped

==== Log checksum F9C281B972371186D8227D2504DA607302AA7E62C40DF2025D5837F2B6C6AD90 ====

DR Log


foobar2000 1.2.6 / Dynamic Range Meter 1.1.1
log date: 2016-02-26 01:52:10

----------------------------------------
Analyzed: Era / Era
----------------------------------------

DR Peak RMS Duration Track
----------------------------------------
DR7 -0.12 dB -10.00 dB 3:50 01-Ameno (Remix)
DR10 -0.25 dB -11.39 dB 4:09 02-Mother (Remix)
DR8 -0.05 dB -10.26 dB 4:16 03-Avemano
DR9 -0.12 dB -11.18 dB 3:49 04-Enae Volare Mezzo
DR7 -0.43 dB -8.58 dB 4:04 05-Misere Mani
DR9 -0.03 dB -11.41 dB 3:21 06-Cathar Rhythm
DR8 -0.26 dB -10.92 dB 4:19 07-Ameno
DR8 -0.62 dB -12.51 dB 1:52 08-Sempire d'Amor
DR9 0.00 dB -11.05 dB 5:00 09-Mother
DR8 -0.26 dB -10.34 dB 3:58 10-Mirror
DR9 -0.06 dB -12.00 dB 3:15 11-Era
DR8 -0.26 dB -10.36 dB 4:38 12-Impera
----------------------------------------

Number of tracks: 12
Official DR value: DR8

Samplerate: 44100 Hz
Channels: 2
Bits per sample: 16
Bitrate: 870 kbps
Codec: FLAC
================================================================================

CUETools Log


[CUETools log; Date: 26.02.2016 1:52:12; Version: 2.1.5]
[CTDB TOCID: 1O1p4_vvLh70EFGVPgFgxLa8kx4-] found.
Track | CTDB Status
1 | (20/20) Accurately ripped
2 | (20/20) Accurately ripped
3 | (20/20) Accurately ripped
4 | (20/20) Accurately ripped
5 | (20/20) Accurately ripped
6 | (20/20) Accurately ripped
7 | (20/20) Accurately ripped
8 | (20/20) Accurately ripped
9 | (19/20) Accurately ripped
10 | (20/20) Accurately ripped
11 | (20/20) Accurately ripped
12 | (20/20) Accurately ripped
[AccurateRip ID: 0014cdb8-00c14e10-8d0ae70c] found.
Track [ CRC | V2 ] Status
01 355a21b|65925693 (12+05/17) Accurately ripped
02 [d5515d1d|3106a4bf] (13+04/17) Accurately ripped
03 [1b68257d|abea6922] (12+05/17) Accurately ripped
04 [ef1dba13|68488d43] (12+05/17) Accurately ripped
05 [5ba9d471|be334cc8] (12+04/16) Accurately ripped
06 c34c6e7|f61078ca (12+04/16) Accurately ripped
07 [4fd17cc6|8d0deec7] (11+04/15) Accurately ripped
08 [96ab1705|54db5549] (11+04/15) Accurately ripped
09 [68fc6b15|6f9418af] (11+04/15) Accurately ripped
10 [2f7eb839|51767958] (12+04/16) Accurately ripped
11 [d7ecbea0|ecc5cd4a] (13+04/17) Accurately ripped
12 [21ab2d8c|46f594c9] (13+04/17) Accurately ripped

Track Peak [ CRC32 ] [W/O NULL] [ LOG ]
- 100,0 377F96D [7FA1ADA2] CRC32
01 98,6 [471C427F] [26D592F5]
02 97,1 [90236100] [38AB52B2]
03 99,3 [CE6B707D] [403293B2]
04 98,6 [ABDCC339] [53F5833E]
05 95,1 [0870CCCC] [8047CAA5]
06 99,6 [C47116E4] [18ADD35F]
07 97,1 [482AD6B9] [E61AABB4]
08 93,0 [A52EC81E] [2D689910]
09 100,0 [C55988C1] [98E06385]
10 97,0 [647C085C] [0D48F91B]
11 99,3 [374EE85B] [E95EBD93]
12 97,0 [8DB73AA3] [6D4315EC]
Download link:

Buy Premium To Support Me & Get Resumable Support & Max Speed:



Links are Interchangeable - No Password - Single Extraction
Direct Download
Comments
Name:*
E-Mail:*
Add Comments:
Enter Code: *