Download Now

http://pxhst.co/avaxhome/89/b2/003ab289_medium.jpg

Toshi Kubota - Nothing But Your Love (2000)
EAC Rip | FLAC with CUE and log | scans | 352 mb
MP3 CBR 320kbps | RAR | 124 mb
Genre: R&B, soul, hip-hop, rap

Nothing But Your Love is the 2000 CD by Japanese singer Toshinobu Kubota, known in English speaking countries simply as Toshi Kuboto. Known for his wonderful soul/R&B music, Nothing But Your Love is his second English album and features help from Ahmir Thompson and Kamal Grey of The Roots, Raphael Saadig, Pras oF The Fugees and a few others. It's Nippon soul at its finest.
1. Nothing But Your Love
2. Masquerade
3. Never Turn Back
4. Body Bounce
5. Someday
6. Till She Comes
7. Pu Pu
8. Nothing But Your Love (Interlude)
9. Sha-Ba-Da-Ba-Doo (Go With The Flow) (Remix)
10. Shame
11. I Just Can´t Get Enough
12. It´s Over
13. Gently


http://pxhst.co/avaxhome/8b/b2/003ab28b_medium.jpg


EAC Log


Exact Audio Copy V1.1 from 23. June 2015

EAC extraction logfile from 12. January 2016, 18:13

Toshi Kubota / Nothing But Your Love

Used drive : TEAC DVD-ROM DV-28SW Adapter: 1 ID: 0

Read mode : Secure
Utilize accurate stream : Yes
Defeat audio cache : Yes
Make use of C2 pointers : No

Read offset correction : 6
Overread into Lead-In and Lead-Out : No
Fill up missing offset samples with silence : Yes
Delete leading and trailing silent blocks : No
Null samples used in CRC calculations : Yes
Used interface : Native Win32 interface for Win NT & 2000
Gap handling : Left out

Used output format : Internal WAV Routines
Sample format : 44.100 Hz; 16 Bit; Stereo

TOC of the extracted CD

Track | Start | Length | Start sector | End sector
-----------------------------
1 | 0:00.00 | 4:21.17 | 0 | 19591
2 | 4:21.17 | 3:42.33 | 19592 | 36274
3 | 8:03.50 | 4:24.60 | 36275 | 56134
4 | 12:28.35 | 4:13.22 | 56135 | 75131
5 | 16:41.57 | 4:51.50 | 75132 | 97006
6 | 21:33.32 | 3:53.13 | 97007 | 114494
7 | 25:26.45 | 3:07.70 | 114495 | 128589
8 | 28:34.40 | 0:38.22 | 128590 | 131461
9 | 29:12.62 | 4:15.33 | 131462 | 150619
10 | 33:28.20 | 4:57.45 | 150620 | 172939
11 | 38:25.65 | 4:19.60 | 172940 | 192424
12 | 42:45.50 | 4:01.45 | 192425 | 210544
13 | 46:47.20 | 4:47.35 | 210545 | 232104

Track 1

Filename C:\My Documents\My FLAC\Toshi Kubota - Nothing But Your Love (2000) [FLAC]\01 - Nothing But Your Love.wav

Pre-gap length 0:00:02.00

Peak level 98.8 %
Extraction speed 2.8 X
Track quality 100.0 %
Test CRC 444F0CD0
Copy CRC 444F0CD0
Cannot be verified as accurate (confidence 1) [9CA39E82], AccurateRip returned [FDEAD84C] (AR v2)
Copy OK

Track 2

Filename C:\My Documents\My FLAC\Toshi Kubota - Nothing But Your Love (2000) [FLAC]\02 - Masquerade.wav

Peak level 98.8 %
Extraction speed 2.6 X
Track quality 99.9 %
Test CRC B8ADC051
Copy CRC B8ADC051
Cannot be verified as accurate (confidence 1) [A9D2ACB7], AccurateRip returned [213932C5] (AR v2)
Copy OK

Track 3

Filename C:\My Documents\My FLAC\Toshi Kubota - Nothing But Your Love (2000) [FLAC]\03 - Never Turn Back.wav

Peak level 98.8 %
Extraction speed 3.4 X
Track quality 100.0 %
Test CRC FF594305
Copy CRC FF594305
Cannot be verified as accurate (confidence 1) [0B2AC821], AccurateRip returned [1A78E96E] (AR v2)
Copy OK

Track 4

Filename C:\My Documents\My FLAC\Toshi Kubota - Nothing But Your Love (2000) [FLAC]\04 - Body Bounce.wav

Peak level 98.8 %
Extraction speed 3.6 X
Track quality 100.0 %
Test CRC E46B8F3C
Copy CRC E46B8F3C
Track not fully ripped for AccurateRip lookup
Copy OK

Track 5

Filename C:\My Documents\My FLAC\Toshi Kubota - Nothing But Your Love (2000) [FLAC]\05 - Someday.wav

Pre-gap length 0:00:01.10

Peak level 100.0 %
Extraction speed 4.0 X
Track quality 100.0 %
Test CRC 8C52A6B8
Copy CRC 8C52A6B8
Track not fully ripped for AccurateRip lookup
Copy OK

Track 6

Filename C:\My Documents\My FLAC\Toshi Kubota - Nothing But Your Love (2000) [FLAC]\06 - Till She Comes.wav

Pre-gap length 0:00:00.57

Peak level 98.8 %
Extraction speed 4.0 X
Track quality 100.0 %
Test CRC EC738582
Copy CRC EC738582
Track not fully ripped for AccurateRip lookup
Copy OK

Track 7

Filename C:\My Documents\My FLAC\Toshi Kubota - Nothing But Your Love (2000) [FLAC]\07 - Pu Pu.wav

Pre-gap length 0:00:00.13

Peak level 98.8 %
Extraction speed 4.0 X
Track quality 100.0 %
Test CRC 2AAC134B
Copy CRC 2AAC134B
Cannot be verified as accurate (confidence 1) [4F2C8582], AccurateRip returned [08677608] (AR v2)
Copy OK

Track 8

Filename C:\My Documents\My FLAC\Toshi Kubota - Nothing But Your Love (2000) [FLAC]\08 - Nothing But Your Love (Interlude).wav

Peak level 24.9 %
Extraction speed 2.5 X
Track quality 100.0 %
Test CRC D4C4E5F0
Copy CRC D4C4E5F0
Cannot be verified as accurate (confidence 1) [5E9C21C9], AccurateRip returned [43FAFE69] (AR v2)
Copy OK

Track 9

Filename C:\My Documents\My FLAC\Toshi Kubota - Nothing But Your Love (2000) [FLAC]\09 - Sha-Ba-Da-Bu-Doo (Go With The Flow) (Camus Celli Mix).wav

Peak level 98.8 %
Extraction speed 4.5 X
Track quality 100.0 %
Test CRC E78292AF
Copy CRC E78292AF
Track not fully ripped for AccurateRip lookup
Copy OK

Track 10

Filename C:\My Documents\My FLAC\Toshi Kubota - Nothing But Your Love (2000) [FLAC]\10 - Shame.wav

Pre-gap length 0:00:00.33

Peak level 98.8 %
Extraction speed 4.8 X
Track quality 100.0 %
Test CRC 68533952
Copy CRC 68533952
Cannot be verified as accurate (confidence 1) [C4F5E3D8], AccurateRip returned [ADF8B1AC] (AR v2)
Copy OK

Track 11

Filename C:\My Documents\My FLAC\Toshi Kubota - Nothing But Your Love (2000) [FLAC]\11 - I Just Can't Get Enough.wav

Peak level 98.9 %
Extraction speed 4.9 X
Track quality 100.0 %
Test CRC 0C70F1AF
Copy CRC 0C70F1AF
Cannot be verified as accurate (confidence 1) [0C631843], AccurateRip returned [D0D8A7FD] (AR v2)
Copy OK

Track 12

Filename C:\My Documents\My FLAC\Toshi Kubota - Nothing But Your Love (2000) [FLAC]\12 - It's Over.wav

Peak level 98.8 %
Extraction speed 5.0 X
Track quality 100.0 %
Test CRC B2F047AE
Copy CRC B2F047AE
Track not fully ripped for AccurateRip lookup
Copy OK

Track 13

Filename C:\My Documents\My FLAC\Toshi Kubota - Nothing But Your Love (2000) [FLAC]\13 - Gently.wav

Pre-gap length 0:00:00.58

Peak level 98.8 %
Extraction speed 5.3 X
Track quality 100.0 %
Test CRC EEC9A661
Copy CRC EEC9A661
Cannot be verified as accurate (confidence 1) [C37AD93F], AccurateRip returned [8C60F7CC] (AR v2)
Copy OK

8 track(s) could not be verified as accurate
5 track(s) not fully ripped for AccurateRip lookup

No tracks could be verified as accurate

No errors occurred

End of status report

==== Log checksum 01F16981F3479CAF1EF86ACD1AC4C210B2C1BFB103ED9B21D2FBE345A3AC8737 ====
Download link:



Links are Interchangeable - No Password - Single Extraction
Direct Download

Tags: Kubota, Nothing

Comments
Name:*
E-Mail:*
Add Comments:
Enter Code: *