Download Now

The Pogues - If I Should Fall From Grace With God (1988) (2004 Remaster)

The Pogues - If I Should Fall From Grace With God (1988) (2004 Remaster)
Rock | 1cd | EAC Rip | Wv + Cue + Log | covers
Rhino R274089 | rel: 2004 | 485Mb

If Rum Sodomy & the Lash captured the Pogues on plastic in all their rough-and-tumble glory, If I Should Fall from Grace with God proved they could learn the rudiments of proper record making and still come up with an album that captured all the sharp edges of their musical personality. Producer Steve Lillywhite imposed a more disciplined approach in the studio than Elvis Costello had, but he had the good sense not to squeeze the life out of the band in the process; as a result, the Pogues sound tighter and more precise than ever, while still summoning up the glorious howling fury that made Rum Sodomy & the Lash so powerful.
And Shane MacGowan continued to grow as a songwriter, as his lyrics and melodies captured with brilliant detail his obsession with the finer points of Anglo-Irish culture. "Fairytale of New York," a glorious sweet-and-sour duet with Kirsty MacColl, and "The Broad Majestic Shannon" were subtle in a way many of his previous work was not, "Birmingham Six" found him addressing political issues for the first time (and with all the expected venom), and "Fiesta" and "Turkish Song of the Damned" found him adding (respectively) faux-Spanish and Middle Eastern flavors into the Pogues' heady mix. And if you want to hear the Pogues blaze through some fast ones, "Bottle of Smoke" and the title song find them doing just what they've always done best. Brilliantly mixing passion, street smarts, and musical ambition, If I Should Fall from Grace with God is the best album the Pogues would ever make. ~Allmusic

Track listing
01. If I Should Fall From Grace With God (2:22)
02. Turkish Song Of The Damned (3:28)
03. Bottle Of Smoke (2:47)
04. Fairytale Of New York (4:36)
05. Metropolis (2:51)
06. Thousands Are Sailing (5:28)
07. Fiesta (4:13)
08. Medley: The Recruting Sergeant/The Rocky Road To Dublin/The Galway Races (4:02)
09. Streets Of Sorrow/Birmingham Six (4:39)
10. Lullaby Of London (3:32)
11. Sit Down By The Fire (2:18)
12. The Broad Majestic Shannon (2:52)
13. Worms (1:05)
14. The Battle March (Medley) (4:10)
15. The Irish Rover (4:08)
16. Mountain Dew (2:20)
17. Shanne Bradley (3:41)
18. Sketches Of Spain (2:15)
19. South Australia (3:27)
~(64:15)

EAC extraction logfile from 30. June 2007, 19:35 for CD
The Pogues / If I Should Fall From Grace With God

Used drive : PIONEER DVD-RW DVR-K16M Adapter: 0 ID: 0
Read mode : Secure with NO C2, accurate stream, disable cache
Read offset correction : 48
Overread into Lead-In and Lead-Out : No

Used output format : Internal WAV Routines
44.100 Hz; 16 Bit; Stereo

Other options :
Fill up missing offset samples with silence : Yes
Delete leading and trailing silent blocks : No
Installed external ASPI interface

Range status and errors
Selected range
Filename E:\Prerelease\The Pogues - If I Should Fall From Grace With God.wav

Peak level 100.0 %
Range quality 99.9 %
CRC 154135A6
Copy OK

No errors occured

End of status report

[CUETools log; Date: 2015.10.15. 10:33:12; Version: 2.1.5]
[CTDB TOCID: _.ZwdqXkrm17PZbTT1Bf63mePgc-] found.
Track | CTDB Status
1 | (103/108) Accurately ripped
2 | (104/108) Accurately ripped
3 | (104/108) Accurately ripped
4 | (104/108) Accurately ripped
5 | (104/108) Accurately ripped
6 | (104/108) Accurately ripped
7 | (104/108) Accurately ripped
8 | (104/108) Accurately ripped
9 | (104/108) Accurately ripped
10 | (104/108) Accurately ripped
11 | (103/108) Accurately ripped
12 | (104/108) Accurately ripped
13 | (103/108) Accurately ripped
14 | (102/108) Accurately ripped
15 | (103/108) Accurately ripped
16 | (103/108) Accurately ripped
17 | (103/108) Accurately ripped
18 | (103/108) Accurately ripped
19 | (103/108) Accurately ripped
[AccurateRip ID: 002d7f7e-027c04c8-240f0f13] found.
Track [ CRC | V2 ] Status
01 [282f8eb7|ea26b7bb] (047+038/235) Accurately ripped
02 [40a81833|00b25705] (048+038/235) Accurately ripped
03 [9bdfead3|edae1dca] (048+038/236) Accurately ripped
04 [618c6a44|f56ef0ee] (048+037/235) Accurately ripped
05 [6e6f4339|2df472ec] (048+037/235) Accurately ripped
06 [ccb34ab9|172880b8] (048+038/235) Accurately ripped
07 [6e910b86|1b2804a8] (048+037/235) Accurately ripped
08 [289eda98|6e160814] (048+035/235) Accurately ripped
09 [c1c2e47a|8df43069] (048+036/232) Accurately ripped
10 [18aef840|168d91f0] (047+036/232) Accurately ripped
11 [a5ad9cbe|1009022f] (048+036/235) Accurately ripped
12 [282277e4|d1e67023] (048+035/232) Accurately ripped
13 [dcf236a5|e5f6d352] (048+036/233) Accurately ripped
14 [5d5c45fa|bd545da6] (046+036/229) Accurately ripped
15 [2e9213e4|202c6755] (048+036/231) Accurately ripped
16 [1ce05680|922dfe6c] (048+035/231) Accurately ripped
17 [3b872502|989b8527] (046+035/226) Accurately ripped
18 [83608c9d|fb206488] (047+035/227) Accurately ripped
19 [02249a5d|c0179d47] (046+035/227) Accurately ripped
Offsetted by -640:
01 [9628fda6] (002/235) Accurately ripped
02 [24f497e1] (002/235) Accurately ripped
03 [9dcb32a8] (002/236) Accurately ripped
04 [ce413837] (002/235) Accurately ripped
05 [cd530735] (002/235) Accurately ripped
06 [77cab9c4] (002/235) Accurately ripped
07 [ac86de71] (002/235) Accurately ripped
08 [c9d44057] (002/235) Accurately ripped
09 [24638d7d] (002/232) Accurately ripped
10 [c11c0378] (002/232) Accurately ripped
11 [c51c3fb3] (002/235) Accurately ripped
12 [9a21a334] (002/232) Accurately ripped
13 [a9b043b3] (002/233) Accurately ripped
14 [7d69c468] (002/229) Accurately ripped
15 [2a43d65e] (002/231) Accurately ripped
16 [8a6b7954] (002/231) Accurately ripped
17 [2dedd825] (002/226) Accurately ripped
18 [09aeecef] (002/227) Accurately ripped
19 [df370084] (002/227) Accurately ripped
Offsetted by 24:
01 [7b5b5407] (061/235) Accurately ripped
02 5a6f209 (060/235) Accurately ripped
03 [05975491] (060/236) Accurately ripped
04 [e95bda97] (060/235) Accurately ripped
05 [fc32ff0f] (060/235) Accurately ripped
06 [73424585] (059/235) Accurately ripped
07 [9252a8b3] (060/235) Accurately ripped
08 [d68b7f96] (060/235) Accurately ripped
09 d8b3922 (059/232) Accurately ripped
10 [e2f4c60d] (059/232) Accurately ripped
11 [6876fce3] (059/235) Accurately ripped
12 [e1d6fdaa] (060/232) Accurately ripped
13 [c9bc3a98] (060/233) Accurately ripped
14 [cdbf7b64] (059/229) Accurately ripped
15 [925eeea0] (059/231) Accurately ripped
16 [afbc2946] (060/231) Accurately ripped
17 [9a9ba8f5] (058/226) Accurately ripped
18 [f20b4a3c] (059/227) Accurately ripped
19 [03ecd501] (058/227) Accurately ripped
Offsetted by -42:
01 9ce9689 (000/235) No match (V2 was not tested)
02 [1bf0af9c] (000/235) No match (V2 was not tested)
03 [dc19708d] (000/236) No match (V2 was not tested)
04 [edb9e204] (000/235) No match (V2 was not tested)
05 [6f544f61] (000/235) No match (V2 was not tested)
06 [a1149e4f] (000/235) No match (V2 was not tested)
07 a026ca7 (000/235) No match (V2 was not tested)
08 [275da0f9] (000/235) No match (V2 was not tested)
09 2aef79d (000/232) No match (V2 was not tested)
10 [62c7bcc9] (000/232) No match (V2 was not tested)
11 [c8272bfb] (000/235) No match (V2 was not tested)
12 [9fe293bd] (000/232) No match (V2 was not tested)
13 [04ddbd50] (000/233) No match (V2 was not tested)
14 [7e48cf77] (000/229) No match (V2 was not tested)
15 [90f14ce3] (000/231) No match
16 2fe66fa (000/231) No match
17 [0b26de18] (000/226) No match
18 [ff52fe9b] (000/227) No match
19 [9754d381] (000/227) No match
Offsetted by 30:
01 [4d3c243a] (000/235) No match
02 [49513cfc] (000/235) No match
03 [c0b2ef10] (000/236) No match
04 [8b9f361f] (000/235) No match
05 [6dccbc43] (000/235) No match
06 [190ade73] (000/235) No match
07 [856ff7f5] (000/235) No match
08 [2850378e] (000/235) No match
09 [46064e53] (000/232) No match (V2 was not tested)
10 52bb972 (000/232) No match
11 [0d9ab71a] (002/235) Accurately ripped
12 [58c67b9d] (000/232) No match
13 d692fc5 (000/233) No match
14 [fee52180] (000/229) No match
15 [f56c5726] (000/231) No match
16 [336c44a5] (000/231) No match
17 [ce33c27d] (000/226) No match
18 [98a77f09] (000/227) No match (V2 was not tested)
19 [26ef314b] (000/227) No match

Track Peak [ CRC32 ] [W/O NULL] [ LOG ]
-- 100,0 [154135A6] [F7101C7A] CRC32
01 96,1 [2DD1C326] [A91F673A]
02 100,0 [372EA8B7] [381984A1]
03 96,1 [E98AB998] [9662F0A7]
04 94,3 [E0A3B198] [0F347FE5]
05 100,0 [F8DD554C] [198A125F]
06 100,0 [5B27C790] [623877D2]
07 100,0 [AA86052F] [6038D53F]
08 100,0 [7D569963] [07E5C26C]
09 100,0 AB65CF6 [072558E7]
10 100,0 [D54BA6D2] DEAC3C1
11 90,3 [F7EB1283] [0C1A23F5]
12 100,0 [1ED41163] [19AB8180]
13 57,6 [C7AB6CEB] [5E82E9A9]
14 100,0 [7B0AC03E] [F5766D84]
15 100,0 [5259FD07] [3E2C06AE]
16 100,0 [F5152AF4] A246C30
17 95,4 [D9D53843] [3DBFD17A]
18 100,0 [22966C3E] [C93AE8FE]
19 97,1 [6A6079E8] [2F28E609]

password: asd
Download link:
Links are Interchangeable - Single Extraction - Premium is support resumable
Direct Download

Tags: Pogues, Should, Remaster

Comments
Name:*
E-Mail:*
Add Comments:
Enter Code: *