Download Now

Anathema - Eternity (1996)

Anathema - Eternity (1996)
Metal | 1cd | EAC Rip | Flac + Cue + Log | covers
Peaceville, CDVILED 64 | rem: 2003 | 485Mb

Although the British band Anathema left their traditional death metal sound behind on The Silent Enigma with guitarist Vincent Cavanagh taking over vocals duties from growler Darren White, the dark themes continue. Shifting their morbid focus from God-bashing and destruction, the chaps focus on suicide and the meaningless of life. The blistering guitars have been replaced by atmospheric keyboards making this come off as a twisted combination of Pink Floyd and Peter Gabriel, and there is even some spoken poetry here.
As a whole, Anathema has proven that they are an original band, not content to repeat history. Unfortunately, there is a place in this world for such dark subject matter, and for those who care, Eternity fits the bill. ~Allmusic

Track listing
01. Sentient (3:01)
02. Angelica (5:51)
03. The Beloved (4:44)
04. Eternity Part I (5:35)
05. Eternity Part II (3:12)
06. Hope (5:56)
07. Suicide Veil (5:10)
08. Radiance (5:52)
09. Far Away (5:30)
10. Eternity Part III (4:44)
11. Cries On The Wind (5:01)
12. Ascension (3:24)
13. Far Away (Acoustic) (5:23)
14. Eternity Part III (Acoustic) (5:08)
15. Angelica (Live) (6:52)
~ (75:23)

Personnel
- Vincent Cavanagh - vocals, guitars
- John Douglas - drums
- Duncan Patterson - bass
- Danny Cavanagh - guitars, keyboards

Exact Audio Copy V1.0 beta 3 from 29. August 2011

EAC extraction logfile from 30. August 2013, 13:33

Anathema / Eternity

Used drive : TSSTcorpCDDVDW SH-224BB Adapter: 1 ID: 0

Read mode : Secure
Utilize accurate stream : Yes
Defeat audio cache : Yes
Make use of C2 pointers : No

Read offset correction

: 6
Overread into Lead-In and Lead-Out : No
Fill up missing offset samples with silence : Yes
Delete leading and trailing silent blocks : No
Null samples used in CRC calculations : Yes
Used interface
: Installed external ASPI interface

Used output format : Internal WAV Routines
Sample format : 44.100 Hz; 16 Bit; Stereo

TOC of the extracted CD Track | Start | Length | Start sector | End sector
--1 | 0:00.00 | 3:00.53 | 0 | 13552 2 | 3:00.53 | 5:50.38 | 13553 | 39840 3 | 8:51.16 | 4:44.05 | 39841 | 61145 4 | 13:35.21 | 5:35.09 | 61146 | 86279 5 | 19:10.30 | 3:11.38 | 86280 | 100642 6 | 22:21.68 | 5:55.63 | 100643 | 127330 7 | 28:17.56 | 5:10.26 | 127331 | 150606 8 | 33:28.07 | 5:52.14 | 150607 | 177020 9 | 39:20.21 | 5:30.07 | 177021 | 201777
10 | 44:50.28 | 4:43.58 | 201778 | 223060
11 | 49:34.11 | 5:01.25 | 223061 | 245660
12 | 54:35.36 | 3:23.53 | 245661 | 260938
13 | 57:59.14 | 5:23.15 | 260939 | 285178
14 | 63:22.29 | 5:08.25 | 285179 | 308303
15 | 68:30.54 | 6:52.25 | 308304 | 339228

Range status and errors

Selected range Filename G:\Anathema\1996 - Eternity (Remaster 2003) (Peaceville CDVILED 64 UK)\Anathema - Eternity.wav Peak level 100.0 %
Extraction speed 8.4 X
Range quality 100.0 %
Test CRC B4508327
Copy CRC 36CF641E
Copy OK

No errors occurred


AccurateRip summary

Track 1 accurately ripped (confidence 11) [AACC0E7B] (AR v2)
Track 2 accurately ripped (confidence 11) [F4F80E83] (AR v2)
Track 3 accurately ripped (confidence 11) [625861DF] (AR v2)
Track 4 accurately ripped (confidence 11) [3A5D30FB] (AR v2)
Track 5 accurately ripped (confidence 11) [A4472706] (AR v2)
Track 6 accurately ripped (confidence 11) [C1122F29] (AR v2)
Track 7 accurately ripped (confidence 11) [1171C0D3] (AR v2)
Track 8 accurately ripped (confidence 11) [55AAAF93] (AR v2)
Track 9 accurately ripped (confidence 11) [A5594BB3] (AR v2)
Track 10 accurately ripped (confidence 11) [1F0F21A1] (AR v2)
Track 11 accurately ripped (confidence 10) [AFFB83CE] (AR v2)
Track 12 accurately ripped (confidence 11) [A87D6E7C] (AR v2)
Track 13 accurately ripped (confidence 11) [C63F5F1A] (AR v2)
Track 14 accurately ripped (confidence 10) [7CA269AB] (AR v2)
Track 15 accurately ripped (confidence 11) [3F97F22E] (AR v2)

All tracks accurately ripped

End of status report

==== Log checksum 41B3E41BAE405DD14093F2E00F594D16E5DB286EDC5A415EF6C04897A1B874FD ====

[CUETools log; Date: 2015.09.29. 11:16:02; Version: 2.1.5]
[CTDB TOCID: JuQAJBroTeAAiPAeSKzjsynQClo-] found.
Track | CTDB Status
1 | (43/43) Accurately ripped
2 | (43/43) Accurately ripped
3 | (43/43) Accurately ripped
4 | (43/43) Accurately ripped
5 | (43/43) Accurately ripped
6 | (43/43) Accurately ripped
7 | (43/43) Accurately ripped
8 | (43/43) Accurately ripped
9 | (43/43) Accurately ripped
10 | (43/43) Accurately ripped
11 | (42/43) Accurately ripped
12 | (42/43) Accurately ripped
13 | (43/43) Accurately ripped
14 | (42/43) Accurately ripped
15 | (43/43) Accurately ripped
[AccurateRip ID: 0027fc9d-01c956ba-ca11ab0f] found.
Track [ CRC | V2 ] Status
01 [36b11bac|aacc0e7b] (11+13/71) Accurately ripped
02 [0b06ad01|f4f80e83] (11+13/71) Accurately ripped
03 [5e025985|625861df] (11+13/71) Accurately ripped
04 [1573171f|3a5d30fb] (11+13/72) Accurately ripped
05 [5a076cf5|a4472706] (11+13/72) Accurately ripped
06 [24e744b0|c1122f29] (11+13/71) Accurately ripped
07 [756638f0|1171c0d3] (11+13/71) Accurately ripped
08 [831ec2fd|55aaaf93] (11+13/71) Accurately ripped
09 [ac4e2519|a5594bb3] (11+13/71) Accurately ripped
10 [2eed36f3|1f0f21a1] (11+13/71) Accurately ripped
11 [af72c4dc|affb83ce] (11+12/70) Accurately ripped
12 [2702c937|a87d6e7c] (11+13/71) Accurately ripped
13 [ff463561|c63f5f1a] (11+13/69) Accurately ripped
14 [845f43f5|7ca269ab] (10+12/64) Accurately ripped
15 [a04a3d2e|3f97f22e] (11+13/66) Accurately ripped
Offsetted by -762:
01 [4a0db034] (03/71) Accurately ripped
02 [70867f69] (03/71) Accurately ripped
03 [e1f6886d] (03/71) Accurately ripped
04 [17272e80] (03/72) Accurately ripped
05 [408da1bb] (03/72) Accurately ripped
06 [8388a239] (03/71) Accurately ripped
07 a8bfa11 (03/71) Accurately ripped
08 [73de3140] (03/71) Accurately ripped
09 [0bd662bc] (03/71) Accurately ripped
10 [cd81f650] (03/71) Accurately ripped
11 [9f4cf2fe] (03/70) Accurately ripped
12 [047f8131] (03/71) Accurately ripped
13 [4f0d980d] (03/69) Accurately ripped
14 [2df8e2e1] (03/64) Accurately ripped
15 a80fc62 (03/66) Accurately ripped
Offsetted by -694:
01 [e4ceb43c] (04/71) Accurately ripped
02 [af4cbb12] (04/71) Accurately ripped
03 [4966ecc0] (04/71) Accurately ripped
04 [dd48d502] (04/72) Accurately ripped
05 [1ecdf3b9] (04/72) Accurately ripped
06 [c4ffdfc9] (04/71) Accurately ripped
07 [37b8da53] (04/71) Accurately ripped
08 [aaa33be6] (04/71) Accurately ripped
09 [fe07806c] (04/71) Accurately ripped
10 [d750a33c] (04/71) Accurately ripped
11 [04db692a] (04/70) Accurately ripped
12 [56312eed] (04/71) Accurately ripped
13 [2f8dd17e] (04/69) Accurately ripped
14 [6e9f6ec0] (04/64) Accurately ripped
15 [ebe6ef5a] (04/66) Accurately ripped
Offsetted by -664:
01 [3aadaef9] (03/71) Accurately ripped
02 [96ba35db] (03/71) Accurately ripped
03 [dd845646] (03/71) Accurately ripped
04 [ad3b38f4] (03/72) Accurately ripped
05 [d4651d45] (03/72) Accurately ripped
06 [7e69ef5f] (03/71) Accurately ripped
07 [27d7b4e2] (03/71) Accurately ripped
08 [95afeb8b] (03/71) Accurately ripped
09 [d9193fdf] (03/71) Accurately ripped
10 [50720b51] (03/71) Accurately ripped
11 [847c24d4] (03/70) Accurately ripped
12 [63a537cf] (03/71) Accurately ripped
13 [ca533175] (03/69) Accurately ripped
14 [fa91dd01] (03/64) Accurately ripped
15 [2757ad5e] (03/66) Accurately ripped
Offsetted by -10:
01 [59e5fca7] (09/71) Accurately ripped
02 [a859603d] (09/71) Accurately ripped
03 d7064fe (09/71) Accurately ripped
04 [0523170f] (10/72) Accurately ripped
05 [9a5b3666] (10/72) Accurately ripped
06 [1adf303b] (09/71) Accurately ripped
07 [2d978cc7] (09/71) Accurately ripped
08 [772f99fa] (09/71) Accurately ripped
09 [5d68a96b] (09/71) Accurately ripped
10 [aa9b33ed] (09/71) Accurately ripped
11 [2f92864e] (09/70) Accurately ripped
12 [2286c641] (09/71) Accurately ripped
13 2cf65cf (09/69) Accurately ripped
14 [1f76959f] (08/64) Accurately ripped
15 [3724a882] (08/66) Accurately ripped
Offsetted by -1438:
01 [cb030464] (00/71) No match (V2 was not tested)
02 [cd6626da] (00/71) No match (V2 was not tested)
03 [cac5c4a0] (00/71) No match (V2 was not tested)
04 [957f5143] (00/72) No match (V2 was not tested)
05 [c042cc3b] (00/72) No match (V2 was not tested)
06 [103438aa] (00/71) No match (V2 was not tested)
07 [90c988b4] (00/71) No match (V2 was not tested)
08 [eadbb5d5] (00/71) No match (V2 was not tested)
09 [a15090c0] (00/71) No match (V2 was not tested)
10 [1ef33c84] (00/71) No match (V2 was not tested)
11 [9e81ebee] (00/70) No match (V2 was not tested)
12 [834c7a59] (00/71) No match (V2 was not tested)
13 8cd2880 (00/69) No match (V2 was not tested)
14 [e89b0bde] (00/64) No match (V2 was not tested)
15 [29c7ba2a] (00/66) No match (V2 was not tested)
Offsetted by -670:
01 [88a3d7a6] (00/71) No match (V2 was not tested)
02 [54188f0d] (00/71) No match (V2 was not tested)
03 [297576df] (00/71) No match (V2 was not tested)
04 e95f3ca (00/72) No match (V2 was not tested)
05 737228f (00/72) No match (V2 was not tested)
06 [3f7482b7] (00/71) No match (V2 was not tested)
07 [85005da3] (00/71) No match (V2 was not tested)
08 [6bca28e6] (00/71) No match (V2 was not tested)
09 [cce65a14] (00/71) No match (V2 was not tested)
10 [0a2eef94] (00/71) No match (V2 was not tested)
11 [37c265b2] (00/70) No match (V2 was not tested)
12 [fa8e02d5] (00/71) No match (V2 was not tested)
13 [9ae10ce7] (00/69) No match (V2 was not tested)
14 [abaec3f7] (00/64) No match (V2 was not tested)
15 [1b74542a] (00/66) No match (V2 was not tested)
Offsetted by -654:
01 [45a9f893] (00/71) No match (V2 was not tested)
02 [d383ed28] (00/71) No match (V2 was not tested)
03 [c93dc723] (00/71) No match (V2 was not tested)
04 [1fed0224] (00/72) No match (V2 was not tested)
05 [845021f0] (00/72) No match (V2 was not tested)
06 [a82a7480] (00/71) No match (V2 was not tested)
07 [2919abd2] (00/71) No match (V2 was not tested)
08 [824738a7] (00/71) No match (V2 was not tested)
09 [3fb7b046] (00/71) No match (V2 was not tested)
10 [167541da] (00/71) No match (V2 was not tested)
11 [045c6362] (00/70) No match (V2 was not tested)
12 [68213ac5] (00/71) No match (V2 was not tested)
13 [7893f404] (00/69) No match (V2 was not tested)
14 [d2f909da] (00/64) No match (V2 was not tested)
15 [907d420a] (00/66) No match (V2 was not tested)

Track Peak [ CRC32 ] [W/O NULL] [ LOG ]
-- 100,0 [36CF641E] [0FB38F8D] CRC32
01 99,6 [C1CCCCCE] [71C3DB73]
02 99,6 [A7332332] [9BA8985F]
03 99,7 [F9917E01] [C9618935]
04 99,6 [7691ABD2] [ABFF2E2F]
05 99,5 [9AC3F960] [400AD955]
06 99,7 [AE1CF35B] [06B163DF]
07 99,5 [D2F5DE85] [0A6F2D0E]
08 99,6 [C964180B] [413CABE6]
09 100,0 [1441D42E] [23A481EC]
10 99,6 [8EB89AA4] [DEAF09AA]
11 99,7 730BAB4 [99D0871F]
12 99,7 [07022914] [912A56FC]
13 100,0 [7ED07E98] [0B7F2A61]
14 99,4 [FF263E69] [F2387F11]
15 99,3 [41438390] [8863E348]

Thx to yura77
password: asd
DOWNLOAD LINKS:
Buy Premium To Support Me & Get Resumable Support & Max Speed


Links are Interchangeable - No Password - Single Extraction
Direct Download

Tags: Anathema, Eternity

Comments
Name:*
E-Mail:*
Add Comments:
Enter Code: *