Download Now

Public Image Ltd. - Second Edition (1979) [2015, Universal Music Japan, UICY-40155]

Public Image Ltd. - Second Edition (1979)
EAC | Flac(Image) + Cue + Log & MP3 CBR 320Kbps
Universal Music Japan, UICY-40155 | ~ 422 or 143 Mb | Scans(png) -> 116 Mb
Alternative Rock / Post Punk

"PiL managed to avoid boundaries for the first four years of their existence, and Metal Box (issued in the U.S. as Second Edition) is undoubtedly the apex. It's a hallmark of uncompromising, challenging post-punk, hardly sounding like anything of the past, present, or future. Sure, there were touchstones that got their imaginations running -- the bizarreness of Captain Beefheart, the open and rhythmic spaces of Can, and the dense pulses of Lee Perry's productions fueled their creative fires -- but what they achieved with their second record is a completely unique hour of avant-garde noise..."


Tracklist:

01 Albatross
02 Memories
03 Swan Lake
04 Poptones
05 Careering
06 Socialist
07 The Suit
08 Bad Baby
09 No Birds
10 Chant
11 Radio 4

Exact Audio Copy V1.1 from 23. June 2015

EAC extraction logfile from 22. September 2015, 19:58

PiL / Second Edition PT-SHM

Used drive : PLEXTOR BD-R PX-B950SA Adapter: 1 ID: 1

Read mode : Secure
Utilize accurate stream : Yes
Defeat audio cache : Yes
Make use of C2 pointers : No

Read offset correction

: 6
Overread into Lead-In and Lead-Out : No
Fill up missing offset samples with silence : Yes
Delete leading and trailing silent blocks : No
Null samples used in CRC calculations : Yes
Used interface
: Native Win32 interface for Win NT & 2000

Used output format : Internal WAV Routines
Sample format : 44.100 Hz; 16 Bit; Stereo

TOC of the extracted CD Track | Start | Length | Start sector | End sector
--1 | 0:00.00 | 10:37.07 | 0 | 47781 2 | 10:37.07 | 5:06.43 | 47782 | 70774 3 | 15:43.50 | 4:12.52 | 70775 | 89726 4 | 19:56.27 | 7:47.23 | 89727 | 124774 5 | 27:43.50 | 4:32.52 | 124775 | 145226 6 | 32:16.27 | 3:11.03 | 145227 | 159554 7 | 35:27.30 | 3:08.72 | 159555 | 173726 8 | 38:36.27 | 3:31.00 | 173727 | 189551 9 | 42:07.27 | 4:31.48 | 189552 | 209924
10 | 46:39.00 | 4:42.15 | 209925 | 231089
11 | 51:21.15 | 5:02.42 | 231090 | 253781
12 | 56:23.57 | 4:26.63 | 253782 | 273794

Range status and errors

Selected range Filename C:\Users\Meijin\Desktop\ALLexxess\PiL\1979 Second Edition (Mini LP PT-SHM Universal Japan 2015)\PiL - Second Edition PT-SHM.wav Peak level 100.0 %
Extraction speed 7.3 X
Range quality 100.0 %
Test CRC 657CF683
Copy CRC 657CF683
Copy OK

No errors occurred


AccurateRip summary

Track 1 not present in database
Track 2 not present in database
Track 3 not present in database
Track 4 not present in database
Track 5 not present in database
Track 6 not present in database
Track 7 not present in database
Track 8 not present in database
Track 9 not present in database
Track 10 not present in database
Track 11 not present in database
Track 12 not present in database

None of the tracks are present in the AccurateRip database

End of status report

- CUETools DB Plugin V2.1.6

[CTDB TOCID: qKECGiX0VqKNe9uBlnx5hNhsY5c-] disk not present in database
Submit result: qKECGiX0VqKNe9uBlnx5hNhsY5c- has been uploaded

==== Log checksum 2FB8338D6D52B36F6C33ABE327BDBD7146BF169D95D2CBE516E5106513EC2589 ====

foobar2000 1.2.9 / Dynamic Range Meter 1.1.1
log date: 2015-09-27 09:01:24

Analyzed: PiL / Second Edition PT-SHM

DR Peak RMS Duration Track

DR11 0.00 dB -12.62 dB 10:37 01-Albatross
DR11 0.00 dB -12.91 dB 5:07 02-Memories
DR11 0.00 dB -13.10 dB 4:13 03-Swanlake
DR12 0.00 dB -12.66 dB 7:47 04-Poptones
DR12 0.00 dB -12.91 dB 4:33 05-Careering
DR12 0.00 dB -13.10 dB 3:11 06-Socialist
DR12 0.00 dB -13.33 dB 3:09 07-Graveyard
DR9 -0.52 dB -11.72 dB 3:31 08-The Suit
DR12 0.00 dB -13.14 dB 4:32 09-Bad Baby
DR11 0.00 dB -13.42 dB 4:42 10-No Birds
DR12 0.00 dB -13.53 dB 5:03 11-Chant
DR11 -1.34 dB -16.30 dB 4:27 12-Radio 4

Number of tracks: 12
Official DR value: DR11

Samplerate: 44100 Hz
Channels: 2
Bits per sample: 16
Bitrate: 940 kbps
Codec: FLAC

[CUETools log; Date: 26.09.2015 13:57:31; Version: 2.1.4]
[CTDB TOCID: qKECGiX0VqKNe9uBlnx5hNhsY5c-] found.
Track | CTDB Status
1 | (1/1) Accurately ripped
2 | (1/1) Accurately ripped
3 | (1/1) Accurately ripped
4 | (1/1) Accurately ripped
5 | (1/1) Accurately ripped
6 | (1/1) Accurately ripped
7 | (1/1) Accurately ripped
8 | (1/1) Accurately ripped
9 | (1/1) Accurately ripped
10 | (1/1) Accurately ripped
11 | (1/1) Accurately ripped
12 | (1/1) Accurately ripped
[AccurateRip ID: 001e0e30-010cdeb7-ba0e420c] disk not present in database.

Track Peak [ CRC32 ] [W/O NULL] [ LOG ]
-- 100,0 [657CF683] [09D2DEFF] CRC32
01 100,0 [DE2EB6D2] [04DB473C]
02 100,0 [061EE5B7] [41F3D480]
03 100,0 [0BE63349] [A75DB50D]
04 100,0 [04EE5E29] [1EE922AF]
05 100,0 B2E3CD1 [08760905]
06 100,0 [9BF7D956] [140F6B57]
07 100,0 [9020A736] [6E50B168]
08 94,1 [555D5F7B] [767E8146]
09 100,0 [EE7E4251] [6AAB1925]
10 100,0 [13FC0332] [77342941]
11 100,0 [9A81875B] [0A7F2DFD]
12 85,7 [45B5078C] [4AEFDEFC]

Public Image Ltd. - Second Edition (1979) [2015, Universal Music Japan, UICY-40155]

DOWNLOAD LINKS:
Buy Premium To Support Me & Get Resumable Support & Max Speed


Links are Interchangeable - No Password - Single Extraction
Direct Download

Tags: Public, Second, Universal

Comments
Name:*
E-Mail:*
Add Comments:
Enter Code: *