Download Now

Skinny Puppy - Bites And Remission (1987)

Skinny Puppy - Bites And Remission (1987)
Electronic | 1cd | EAC Rip | Flac + Cue + Log | covers
Nettwerk, NTCD30 | rel: 1987 | 480Mb

Bites and Remission is a compilation by Skinny Puppy released on Nettwerk in 1987. The release of this compilation coincides with that of Remission & Bites and contains many of the same songs, albeit in a different context. This compilation culls songs from the assorted releases of Skinny Puppy's first two albums, Remission and Bites, and features remixes of two songs in place of their original versions.
~Wikipedia

Track listing
01. Film (2:19)
02. Smothered Hope (5:14)
03. Glass Houses (3:21)
04. Far Too Frail (3:44)
05. Solvent (4:39)
06. Sleeping Beast (6:02)
07. Glass Out (3:25)
08. Brap (1:11)
09. Assimilate r23 mix (6:34)
10. Dead Lines (6:14)
11. Blood on the Wall (2:58)
12. Ice Breaker (3:14)
13. Christianity (1:33)
14. The Choke re-grip (6:12)
15. Social Deception (2:59)
16. Basement (3:29)
17. Last Call (5:57)
~ (69:04)

Exact Audio Copy V1.0 beta 1 from 15. November 2010

EAC extraction logfile from 7. February 2011, 23:22

Skinny Puppy / Bites and Remission

Used drive : PLEXTOR CD-R PX-240A Adapter: 1 ID: 1

Read mode : Secure
Utilize accurate stream : Yes
Defeat audio cache : Yes
Make use of C2 pointers : No

Read offset correction : 6
Overread into Lead-In and Lead-Out : No
Fill up missing offset samples with silence : Yes
Delete leading and trailing silent blocks : No
Null samples used in CRC calculations : Yes
Used interface : Installed external ASPI interface

Used output format : Internal WAV Routines
Sample format : 44.100 Hz; 16 Bit; Stereo

TOC of the extracted CD

Track | Start | Length | Start sector | End sector
---------------------------------------------------------
1 | 0:00.00 | 2:19.20 | 0 | 10444
2 | 2:19.20 | 5:14.05 | 10445 | 33999
3 | 7:33.25 | 3:21.00 | 34000 | 49074
4 | 10:54.25 | 3:43.47 | 49075 | 65846
5 | 14:37.72 | 4:38.38 | 65847 | 86734
6 | 19:16.35 | 6:01.40 | 86735 | 113849
7 | 25:18.00 | 3:25.05 | 113850 | 129229
8 | 28:43.05 | 1:11.37 | 129230 | 134591
9 | 29:54.42 | 6:33.65 | 134592 | 164131
10 | 36:28.32 | 6:14.03 | 164132 | 192184
11 | 42:42.35 | 2:57.67 | 192185 | 205526
12 | 45:40.27 | 3:13.73 | 205527 | 220074
13 | 48:54.25 | 1:32.70 | 220075 | 227044
14 | 50:27.20 | 6:11.57 | 227045 | 254926
15 | 56:39.02 | 2:58.65 | 254927 | 268341
16 | 59:37.67 | 3:28.53 | 268342 | 283994
17 | 63:06.45 | 5:57.02 | 283995 | 310771

Range status and errors

Selected range

Filename Z:\data\mp3\Seeding Archive\Skinny Puppy\1986-Bites And Remission\Bites and Remission.wav

Peak level 94.5 %
Extraction speed 0.8 X
Range quality 100.0 %
Test CRC BA583171
Copy CRC BA583171
Copy OK

No errors occurred


AccurateRip summary

Track 1 accurately ripped (confidence 5) [6B3F46D5]
Track 2 accurately ripped (confidence 5) [40C54E14]
Track 3 accurately ripped (confidence 5) [F351693D]
Track 4 accurately ripped (confidence 5) [38F090DA]
Track 5 accurately ripped (confidence 5) [59E024A3]
Track 6 accurately ripped (confidence 5) [04F9D221]
Track 7 accurately ripped (confidence 4) [4F8FAF1D]
Track 8 accurately ripped (confidence 6) [0D12758A]
Track 9 accurately ripped (confidence 5) [3E0526D2]
Track 10 accurately ripped (confidence 4) [84F07112]
Track 11 accurately ripped (confidence 5) [305ADD18]
Track 12 accurately ripped (confidence 5) [81A9DC42]
Track 13 accurately ripped (confidence 5) [1EA24AA0]
Track 14 accurately ripped (confidence 5) [AEF19298]
Track 15 accurately ripped (confidence 5) [8ACB086A]
Track 16 accurately ripped (confidence 5) [25933838]
Track 17 accurately ripped (confidence 5) [E4D6CD65]

All tracks accurately ripped

End of status report

[CUETools log; Date: 2015.09.07. 12:21:37; Version: 2.1.5]
[CTDB TOCID: oYX.zqFK9nwEU9G08paLErh9ZwE-] found.
Track | CTDB Status
1 | (2/3) Accurately ripped
2 | (3/3) Accurately ripped
3 | (2/3) Accurately ripped
4 | (3/3) Accurately ripped
5 | (3/3) Accurately ripped
6 | (3/3) Accurately ripped
7 | (3/3) Accurately ripped
8 | (3/3) Accurately ripped
9 | (2/3) Accurately ripped
10 | (3/3) Accurately ripped
11 | (3/3) Accurately ripped
12 | (3/3) Accurately ripped
13 | (3/3) Accurately ripped
14 | (3/3) Accurately ripped
15 | (3/3) Accurately ripped
16 | (3/3) Accurately ripped
17 | (3/3) Accurately ripped
[AccurateRip ID: 0029f936-02163b62-05102f11] found.
Track [ CRC | V2 ] Status
01 [6b3f46d5|a0de0f8f] (06+03/09) Accurately ripped
02 [40c54e14|dee366ae] (06+03/09) Accurately ripped
03 [f351693d|f6cccdf0] (06+03/09) Accurately ripped
04 [38f090da|96fc3900] (06+03/09) Accurately ripped
05 [59e024a3|23e6232b] (06+03/09) Accurately ripped
06 [04f9d221|9f184cbb] (06+03/09) Accurately ripped
07 [4f8faf1d|a0e03a85] (05+03/08) Accurately ripped
08 [0d12758a|06bd8625] (07+03/10) Accurately ripped
09 [3e0526d2|3edf64f5] (06+03/09) Accurately ripped
10 [84f07112|df9cc4cd] (05+03/08) Accurately ripped
11 [305add18|70568e20] (06+03/09) Accurately ripped
12 [81a9dc42|49b3fbe7] (06+03/09) Accurately ripped
13 [1ea24aa0|4dc45f30] (06+03/09) Accurately ripped
14 [aef19298|89a0f86d] (06+03/09) Accurately ripped
15 [8acb086a|ebdf0c6d] (06+03/09) Accurately ripped
16 [25933838|5489e785] (06+03/09) Accurately ripped
17 [e4d6cd65|7da16c38] (06+03/09) Accurately ripped

Track Peak [ CRC32 ] [W/O NULL] [ LOG ]
-- 94,5 A583171 [FDC2566E] CRC32
01 66,3 [75E23237] [8296CC57]
02 62,3 [0966728D] [902CE473]
03 94,5 [44DF7A16] [E029FFD4]
04 62,7 [FD71016B] [37BBE39C]
05 61,9 [04D84DA1] [625BCCA1]
06 72,3 [8766AA24] [86C87805]
07 94,2 [ED4BEFEC] [8442294D]
08 63,4 [47D32F6D] [A4C9C813]
09 85,6 [0B0ADF3F] [8FE1BE8E]
10 77,4 [9E08B716] [F2D561BA]
11 90,9 [ED993C22] [9752955C]
12 91,9 [7783BA0B] 3435FAF
13 82,7 [2B3980DB] [AAEE3AA3]
14 91,7 [A847CD7A] [4ECD1F0E]
15 82,5 [5A814D71] [2FEAC594]
16 69,2 [9A21AD98] D9F70BD
17 86,1 [F4C2FC8B] C16D461

password: asd
Buy Premium Account To Get Resumable Support & Max Speed

DOWNLOAD LINK

Links are Interchangeable - No Password - Single Extraction
Direct Download

Tags: Skinny, Remission

Comments
Name:*
E-Mail:*
Add Comments:
Enter Code: *