Download Now

Scott Hamilton Scandinavian Five - Live at Nefertiti (2009)

Scott Hamilton Scandinavian Five - Live at Nefertiti (2009)
Jazz | 1cd | EAC Rip | Flac + Cue + Log | covers
Sundance STUCD 09182 | rel: 2009 | 400Mb

Jazz isn't always about breaking new ground in terms of sound and genre. It's just as important to preserve the music of the masters, and nobody carries the torch of tradition more elegantly than tenor saxophonist Scott Hamilton. His heroes include Ben Webster, Coleman Hawkins and Lester Young-in short, the founding fathers of swing saxophone playing. Paradoxically, Hamilton was something of a rare bird when he first emerged on the scene back in the seventies because of his emphasis on pre-modern jazz in an age of high-tech fusion.
However, Hamilton stuck to his trade and throughout the years, he has steadily released a stream of delightful records on the renowned Concord Records. The release of Live at Nefertiti finds the saxophonist dipping into unknown waters, though not in terms of genre, where he's still swinging as strong as ever, Rather, his new course is in the shape of a new Scandinavian group gathered by Danish drummer Kristian Leth.
The Scandinavian Five features two Swedish aces, pianist Jan Lundgren and guitarist Ulf Wakenius, with Leth and Danish bassist Jesper Bodilsen rounding out the group. They are a stellar team that brings shimmer and depth to the recording whose intimacy is further enhanced by the live setting of the Swedish club Nefertiti.
Denzil De Costa Best's "Move" heats things up from the beginning with Hamilton's honking saxophone and a lightning-fast guitar solo from Wakenius, who impresses with his technical skills and melodic invention. But no matter how hard the group is able to swing, Hamilton is, in essence, a ballad-man. This is reflected on the epic renderings of "Dear Old Stockholm" and "Bye Bye Blackbird," which feature the gorgeously romantic harmonizing of Lundgren. Hamilton is not only a storyteller, he is also a listener. In fact, all the musicians in the group listen to each other with great empathy, as can be seen in the DVD that accompanies the CD, an opportunity to experience the full show in sparkling color and sound.
The whole package is hard to beat when it comes to getting an introduction to an important traditionalist who still plays the sounds from the past as fresh as if they were the music of tomorrow. ~Allaboutjazz

Track listing
01. Move (10:13)
02. Tenderly (6:46)
03. Dear Old Stockholm (10:05)
04. Bye Bye Blackbird (13:38)
05. In A Sentimental Mood (7:07)
06. Blue Capers (11:42)
~ (59:31)

Exact Audio Copy V1.0 beta 3 from 29. August 2011

EAC extraction logfile from 29. October 2014, 14:57

Scott Hamilton Scandinavian Five / Live at Nefertiti

Used drive : TEAC CD-W524E Adapter: 6 ID: 1

Read mode : Secure
Utilize accurate stream : Yes
Defeat audio cache : Yes
Make use of C2 pointers : No

Read offset correction : 686
Overread into Lead-In and Lead-Out : No
Fill up missing offset samples with silence : Yes
Delete leading and trailing silent blocks : No
Null samples used in CRC calculations : Yes
Used interface : Native Win32 interface for Win NT & 2000
Gap handling : Appended to previous track

Used output format : User Defined Encoder
Selected bitrate : 128 kBit/s
Quality : High
Add ID3 tag : No
Command line compressor : G:\Program Files\Exact Audio Copy\Encoder\flac.exe
Additional command line options : -V -8 -T "Genre=%genre%" -T "Artist=%artist%" -T "Title=%title%" -T "Album=%albumtitle%" -T "Date=%year%" -T "Tracknumber=%tracknr%" -T "Comment=EAC1.0b3 FLAC -8" %source%

TOC of the extracted CD

Track | Start | Length | Start sector | End sector
---------------------------------------------------------
1 | 0:00.00 | 10:12.53 | 0 | 45952
2 | 10:12.53 | 6:46.04 | 45953 | 76406
3 | 16:58.57 | 10:05.07 | 76407 | 121788
4 | 27:03.64 | 13:37.63 | 121789 | 183126
5 | 40:41.52 | 7:07.33 | 183127 | 215184
6 | 47:49.10 | 11:41.73 | 215185 | 267832

Track 1

Filename F:\WAV\01 - Move.wav

Pre-gap length 0:00:02.00

Peak level 100.0 %
Extraction speed 2.2 X
Track quality 100.0 %
Test CRC EF6E786E
Copy CRC EF6E786E
Cannot be verified as accurate (confidence 6) [98521A0B], AccurateRip returned [E55CA0B4] (AR v2)
Copy OK

Track 2

Filename F:\WAV\02 - Tenderly.wav

Peak level 97.5 %
Extraction speed 2.4 X
Track quality 100.0 %
Test CRC 8B5B358F
Copy CRC 8B5B358F
Cannot be verified as accurate (confidence 6) [19CB5AC4], AccurateRip returned [2EB5DD8D] (AR v2)
Copy OK

Track 3

Filename F:\WAV\03 - Dear Old Stockholm.wav

Peak level 100.0 %
Extraction speed 2.2 X
Track quality 100.0 %
Test CRC D818B8FD
Copy CRC D818B8FD
Cannot be verified as accurate (confidence 6) [5051856A], AccurateRip returned 237144F (AR v2)
Copy OK

Track 4

Filename F:\WAV\04 - Bye Bye Blackbird.wav

Peak level 100.0 %
Extraction speed 3.3 X
Track quality 100.0 %
Test CRC D0C7460B
Copy CRC D0C7460B
Cannot be verified as accurate (confidence 6) [1FF98654], AccurateRip returned [D731F134] (AR v2)
Copy OK

Track 5

Filename F:\WAV\05 - In A Sentimental Mood.wav

Peak level 97.7 %
Extraction speed 3.5 X
Track quality 100.0 %
Test CRC AB773F6C
Copy CRC AB773F6C
Cannot be verified as accurate (confidence 6) [6E6E6187], AccurateRip returned [7CE567CE] (AR v2)
Copy OK

Track 6

Filename F:\WAV\06 - Blue Capers.wav

Peak level 100.0 %
Extraction speed 3.8 X
Track quality 100.0 %
Test CRC A3AAE804
Copy CRC A3AAE804
Cannot be verified as accurate (confidence 6) AD6F93F, AccurateRip returned [3EE8EF32] (AR v2)
Copy OK

No tracks could be verified as accurate
You may have a different pressing from the one(s) in the database

No errors occurred

End of status report

==== Log checksum 6BBE125942148293F5956524C42439BDFEFBD9F6C4AF355B6E51C424BFD173DF ====

[CUETools log; Date: 2015.09.04. 14:27:05; Version: 2.1.5]
[CTDB TOCID: Vd4k_E2Mxw17ijmaABLIrTjDoXQ-] found.
Track | CTDB Status
1 | (1/1) Accurately ripped
2 | (1/1) Accurately ripped
3 | (1/1) Accurately ripped
4 | (1/1) Accurately ripped
5 | (1/1) Accurately ripped
6 | (1/1) Accurately ripped
[AccurateRip ID: 000de3d6-004a9d04-3d0df306] found.
Track [ CRC | V2 ] Status
01 [a7682db4|98521a0b] (00+00/10) No match
02 [e88b1202|19cb5ac4] (00+00/10) No match
03 [c4b942e9|5051856a] (00+00/10) No match
04 [af239400|1ff98654] (00+00/10) No match
05 dc47f3a|6e6e6187 (00+00/10) No match
06 [aae20203|bad6f93f] (00+00/10) No match
Offsetted by 6:
01 [f47ab1e7] (03/10) Accurately ripped
02 [fb8e6585] (03/10) Accurately ripped
03 [21fe6b3a] (03/10) Accurately ripped
04 [6028876f] (03/10) Accurately ripped
05 [c8e23878] (03/10) Accurately ripped
06 [347e6915] (03/10) Accurately ripped

Track Peak [ CRC32 ] [W/O NULL] [ LOG ]
-- 100,0 [44DDF818] [0E804644]
01 100,0 [EF6E786E] [7463A75A] CRC32
02 97,4 [8B5B358F] BA6963E CRC32
03 100,0 [D818B8FD] [E135136D] CRC32
04 99,9 [D0C7460B] [CB064FC4] CRC32
05 97,7 [AB773F6C] [98873987] CRC32
06 100,0 [A3AAE804] [E5E03F4B] CRC32

password: asd
Buy Premium Account To Get Resumable Support & Max Speed

DOWNLOAD LINK

Links are Interchangeable - No Password - Single Extraction
Direct Download

Tags: Hamilton, Scandinavian, Nefertiti

Comments
Name:*
E-Mail:*
Add Comments:
Enter Code: *