Download Now

The Robert Cray Band - 4 Nights Of 40 Years (2015) [BDRip 720p]

The Robert Cray Band - 4 Nights Of 40 Years (2015)
BDRip 720p | MKV | 4595 kbps, 1280x720 at 23.976 fps, AVC ([email protected]) | 3.28 GB
Audio: 384 kbps, 48 kHz, 16 bits, 2 channels, AC-3 | Length: 01:34:00
Genre: Blues | Nitroflare/Uploadable

Contemporary blues icon Robert Cray will be celebrating his 40 years of performing with an incredible live release, ‘4 Nights of 40 Years Live' on 28th August 2015. This live album was recorded at Venture, Belly Up, Saban Theatre and his rehearsal studio in Dec 2014. Both the DVD and Blu-ray contain 90 minutes of concert footage from multiple camera angles creating an incredible perspective. It also contains personal in-depth interviews with Robert Cray, his band members and testimonials from legends as Eric Clapton, Buddy Guy, Keith Richards, Jimmie Vaughan and Bonnie Raitt.

The Robert Cray Band - 4 Nights Of 40 Years (2015) [BDRip 720p]


Tracklisting
1. Intro / I Shiver
2. T-Bone Shuffle
3. Love Gone To Waste
4. I Guess I Showed Her
5. I'll Always Remember You
6. Your Good Thing Is About To End
7. Too Many Cooks
8. Wrap It Up
9. Won't Be Coming Home
10. Smoking Gun
11. Sittin' On Top of the World
12. Two Steps From The End
13. Bad Influence
14. These Things
15. Right Next Door (Because Of Me)
16. The Forecast (Calls For Pain)
17. Time Makes Two

General
Unique ID : 244654347262289079955329486150876470406 (0xB80EB69D8FB56E34B97A0412ABD31C86)
Complete name : C:\Users\ggu\Desktop\ggu\The.Robert.Cray.Band.4.Nights.Of.40.Years.2015.720p.MBluRay.x264-TREBLE\robertcray720p.mkv
Format : Matroska
Format version : Version 4 / Version 2
File size : 3.28 GiB
Duration : 1h 34mn
Overall bit rate : 4 979 Kbps
Encoded date : UTC 2015-08-30 16:44:15
Writing application : mkvmerge v8.3.0 ('Over the Horizon') 64bit
Writing library : libebml v1.3.1 + libmatroska v1.4.2
DURATION : 01:34:14.176000000
NUMBER_OF_FRAMES : 176693
NUMBER_OF_BYTES : 271400448
_STATISTICS_WRITING_APP : mkvmerge v8.3.0 ('Over the Horizon') 64bit
_STATISTICS_WRITING_DATE_UTC : 2015-08-30 16:44:15
_STATISTICS_TAGS : BPS DURATION NUMBER_OF_FRAMES NUMBER_OF_BYTES

Video
ID : 1
Format : AVC
Format/Info : Advanced Video Codec
Format profile : [email protected]
Format settings, CABAC : Yes
Format settings, ReFrames : 5 frames
Codec ID : V_MPEG4/ISO/AVC
Duration : 1h 34mn
Bit rate : 4 595 Kbps
Width : 1 280 pixels
Height : 720 pixels
Display aspect ratio : 16:9
Frame rate mode : Constant
Frame rate : 23.976 fps
Color space : YUV
Chroma subsampling : 4:2:0
Bit depth : 8 bits
Scan type : Progressive
Bits/(Pixel*Frame) : 0.208
Stream size : 2.96 GiB (90%)
Title : Egnlish
Writing library : x264 core 148 r2597 e86f3a1
Encoding settings : cabac=1 / ref=5 / deblock=1:0:0 / analyse=0x3:0x113 / me=umh / subme=8 / psy=1 / psy_rd=1.00:0.00 / mixed_ref=1 / me_range=16 / chroma_me=1 / trellis=1 / 8x8dct=1 / cqm=0 / deadzone=21,11 / fast_pskip=1 / chroma_qp_offset=-2 / threads=12 / lookahead_threads=2 / sliced_threads=0 / nr=0 / decimate=1 / interlaced=0 / bluray_compat=0 / constrained_intra=0 / bframes=3 / b_pyramid=2 / b_adapt=2 / b_bias=0 / direct=3 / weightb=1 / open_gop=0 / weightp=2 / keyint=240 / keyint_min=24 / scenecut=40 / intra_refresh=0 / rc_lookahead=50 / rc=2pass / mbtree=1 / bitrate=4595 / ratetol=1.0 / qcomp=0.60 / qpmin=0 / qpmax=69 / qpstep=4 / cplxblur=20.0 / qblur=0.5 / ip_ratio=1.40 / aq=1:1.00
Language : English
Default : Yes
Forced : No
DURATION : 01:34:14.149000000
NUMBER_OF_FRAMES : 135564
NUMBER_OF_BYTES : 3246477496
_STATISTICS_WRITING_APP : mkvmerge v8.3.0 ('Over the Horizon') 64bit
_STATISTICS_WRITING_DATE_UTC : 2015-08-30 16:44:15
_STATISTICS_TAGS : BPS DURATION NUMBER_OF_FRAMES NUMBER_OF_BYTES

Audio
ID : 2
Format : AC-3
Format/Info : Audio Coding 3
Mode extension : CM (complete main)
Format settings, Endianness : Big
Codec ID : A_AC3
Duration : 1h 34mn
Bit rate mode : Constant
Bit rate : 384 Kbps
Channel(s) : 2 channels
Channel positions : Front: L R
Sampling rate : 48.0 KHz
Bit depth : 16 bits
Compression mode : Lossy
Stream size : 259 MiB (8%)
Title : English
Language : English
Default : Yes
Forced : No

Menu
00:00:00.000 : en:00:00:00.000
00:02:49.544 : en:00:02:49.544
00:07:01.671 : en:00:07:01.671
00:13:30.184 : en:00:13:30.184
00:17:11.030 : en:00:17:11.030
00:23:11.390 : en:00:23:11.390
00:29:14.878 : en:00:29:14.878
00:32:36.955 : en:00:32:36.955
00:37:10.979 : en:00:37:10.979
00:43:35.738 : en:00:43:35.738
00:48:15.393 : en:00:48:15.393
00:52:18.761 : en:00:52:18.761
00:58:12.239 : en:00:58:12.239
01:03:18.795 : en:01:03:18.795
01:10:48.619 : en:01:10:48.619
01:19:37.273 : en:01:19:37.273
01:25:33.879 : en:01:25:33.879

Thanks to the original uploader


The Robert Cray Band - 4 Nights Of 40 Years (2015) [BDRip 720p]


Buy Premium Account To Get Resumable Support & Max Speed

DOWNLOAD LINK

Links are Interchangeable - No Password - Single Extraction
Direct Download

Tags: Robert, Nights

Comments
Name:*
E-Mail:*
Add Comments:
Enter Code: *