Download Now

Kenny Rogers - Gideon (1980) & Share Your Love (1981) [2CD] (2009, Reissue)

Kenny Rogers - Gideon (1980) & Share Your Love (1981) [2CD] (2009, Reissue)
Country, Pop/Rock | EAC Rip | FLAC, Img+CUE + LOG + Full Scans-300dpi (JPEG) | 39:10 + 39:42 Min | 485,01 Mb
Label: Edsel Records (EU) | Released: 2009, September, 15

"
2009 two CD set containing a pair of albums from the Country superstar, originally released on the United Artists and Liberty labels at the height of his worldwide popularity. Though Rogers achieved success at the tail end of the '60s with his band The First Edition, it wasn't until he fully crossed over into the Country market that international fame came calling. Ironically, his move away from the Pop charts actually brought him more success once Country Music began to crossover into the same market he had initially given up on. This set contains the albums Gideon (1980) and Share Your Love (1981). Includes 'Don't Fall In Love With A Dreamer' (a duet with Kim Carnes), 'Lady', 'Makes Me Wonder If I Ever Said Goodbye' and more.
"

Kenny Rogers - Gideon (1980) & Share Your Love (1981) [2CD] (2009, Reissue)

Kenny Rogers - Gideon (1980) & Share Your Love (1981) [2CD] (2009, Reissue)

Kenny Rogers - Gideon (1980) & Share Your Love (1981) [2CD] (2009, Reissue)


Release of those albums: "Gideon" - 1980 [LP United Artists Records, Cat.# LOO-1035, USA; "Share Your Love" - 1981 [LP Liberty Records, Cat.# LOO-1108, USA]
Release of this CD: 2009, September, 15 [CD Edsel Records (AU), Cat.# EDSD 2042 / EAN: 740155204235]
Licensed courtesy of EMI Records Ltd. © 2009 Demon Music Group Ltd.
Disc 1 ℗ 1980, Disc 2 ℗ 1981 The copyright of those sound recordings is owned by Capitol Records Nashville
Marketed by Edsel, a division of the Demon Music Group Ltd.
Manufactured in the EU.

~Gideon~
Producers - Kenny Rogers, Larry Butler
Written-By - D. Ellingson, K. Carnes
Saxophone [Solo] - David Boruff (tracks: 2.2), Gary Herbig (tracks: 2.6)

Backing Vocals - Brooks Hunnicut (tracks: 2.9), Merald Woodrow Knight Jr. (tracks: 2.6), Cindy Fee (tracks: 2.7), Deborah Thomas (tracks: 2.3, 2.9), Dorothy Sugarloaf (tracks: 2.10), Edward Patten (tracks: 2.6), Gene Morford (tracks: 2.1), Gladys Marie Knight (tracks: 2.6), Kin Vassy (tracks: 2.2 to 2.4, 2.7, 2.9), Lionel B. Richie, Jr. (tracks: 2.4, 2.6 to 2.8), Michael Jackson (tracks: 2.8), Terry Williams (tracks: 2.1 to 2.4, 2.10), William Franklin Guest (tracks: 2.6)

~Share Your Love~
Engineer, Mixed By - Kenny Rogers
Producer - Lionel Richie (Lionel Brockman Richie, Jr.)
Producer [Assistant] - Brenda Harvey Richie
Recorded By, Mixed By, Engineer - Reggie Dozier


Tracklist:

Gideon (1980):

01. Intro: "Goin' Home To The Rock" (00:42)
(K. Carnes, D. Ellingson)
02. Gideon Tanner (02:34)
(K. Carnes, D. Ellingson)
03. No Good Texas Rounder (04:15)
(K. Carnes, D. Ellingson)
04. Don't Fall In Love With A Dreamer (Vocal Duet by Kim Carnes) (03:42)
(K. Carnes, D. Ellingson)
05. The Buckeroos (03:22)
(K. Carnes, D. Ellingson)
06. You Were A Good Friend (03:59)
(K. Carnes, D. Ellingson)
07. Call Me Up (The Phone Is In The Cradle) (03:22)
(K. Carnes, D. Ellingson)
08. These Chains (03:28)
(K. Carnes, D. Ellingson)
09. Somebody Help Me (02:56)
(Dave Ellingson)
10. One Place In The Night (03:05)
(Kim Carnes)
11. Sayin' Goodbye (03:29)
(K. Carnes, D. Ellingson)
12. Requiem: "Goin' Home To The Rock" (01:05)
(K. Carnes, D. Ellingson)
Bonus Track:
13. Love The World Away (03:13)
(Bob Morrison, Johnny Wilson)

Share Your Love (1981):

01. Blaze Of Glory (02:35)
(D. Morrison, J. Slate, L. Keith)
02. I Don't Need You (03:29)
(Rick Christian)
03. The Good Life (02:48)
(Lionel Richie, Jr.)
04. Makes Me Wonder If I Ever Said Goodbye (02:31)
(M. Newburry)
05. Through The Years (04:44)
(M. Panzer, S. Dorff)
06. Share Your Love With Me (03:19)
(A. Braggs, D. Malone)
07. So In Love With You (04:13)
(Lionel Richie, Jr.)
08. Goin' Back To Alabama acking Vocals - Michael Jackson (04:29)
(Lionel Richie, Jr.)
09. Without You In My Life (05:04)
(Lionel Richie, Jr., T. McClary)
10. Grey Beard (03:59)
(K. Stone, K. Rogers, G. Golden)

Отчёт EAC об извлечении, выполненном 24. февраля 2011, 21:36 для диска:
Kenny Rogers / "Gideon"

Дисковод: PIONEER DVD-RW DVR-216D Adapter: 2 ID: 0
Режим чтения: Достоверный (C2: нет, Точный поток: да, Отключение кэша: да)
Коррекция смещения при чтении: 96
Способность читать области Lead-in и Lead-out : Нет

Выходной формат: Внутренние WAV-операции 44.100 Гц; 16 бит; стерео

Другие параметры:
Заполнение пропущенных сэмплов тишиной : Да
Удаление блоков с тишиной в начале и конце : Нет
Встроенный Win32-интерфейс для Win NT/2000

Характеристики диапазона извлечения и сообщения об ошибках
Выбранный диапазон
Имя файла I:\МУЗЫКА - Виталий\WAV - FLAC\Kenny Rogers\1980 - Gideon + 1981 Share Your love (2009 - EU)\1980 - Gideon\Kenny Rogers - Gideon .wav Пиковый уровень 98.7 %
Качество диапазона 100.0 %
CRC 6D0B3810
Копирование... OK

Ошибок не произошло

Конец отчёта

Отчёт EAC об извлечении, выполненном 25. февраля 2011, 17:41 для диска:
Kenny Rogers / "Share Your Love"

Дисковод: PIONEER DVD-RW DVR-216D Adapter: 2 ID: 0
Режим чтения: Достоверный (C2: нет, Точный поток: да, Отключение кэша: да)
Коррекция смещения при чтении: 96
Способность читать области Lead-in и Lead-out : Нет

Выходной формат: Внутренние WAV-операции 44.100 Гц; 16 бит; стерео

Другие параметры:
Заполнение пропущенных сэмплов тишиной : Да
Удаление блоков с тишиной в начале и конце : Нет
Встроенный Win32-интерфейс для Win NT/2000

Характеристики диапазона извлечения и сообщения об ошибках
Выбранный диапазон
Имя файла I:\МУЗЫКА - Виталий\WAV - FLAC\Kenny Rogers\1980 - Gideon + 1981 Share Your love (2009 - EU)\1981 - Share Your love\Kenny Rogers - Share Your Love .wav Пиковый уровень 94.4 %
Качество диапазона 100.0 %
CRC 12B65F47
Копирование... OK

Ошибок не произошло

Конец отчёта

foobar2000 1.3.7 / Dynamic Range Meter 1.1.1
log date: 2015-08-29 22:04:54

Analyzed: / Gideon

DR Peak RMS Duration Track

DR12 -5.51 dB -22.17 dB 0:42 01-Intro : 'Goin' Home To The Rock'
DR15 -0.11 dB -19.67 dB 2:34 02-Gideon Tanner
DR16 -1.18 dB -20.38 dB 4:15 03-No Good Texas Rounder
DR14 -1.91 dB -20.48 dB 3:42 04-Don't Fall In Love With A Dreamer
DR15 -0.15 dB -17.57 dB 3:22 05-The Buckeroos
DR14 -0.19 dB -20.20 dB 3:59 06-You Were A Good Friend
DR14 -1.68 dB -17.80 dB 3:22 07-Call Me Up (The Phone Is In The Cradle)
DR14 -0.69 dB -18.65 dB 3:28 08-These Chains
DR12 -2.14 dB -17.30 dB 2:56 09-Somebody Help Me
DR13 -2.55 dB -20.17 dB 3:05 10-One Place In The Night
DR14 -2.77 dB -21.26 dB 3:29 11-Sayin' Goodbye
DR15 -4.22 dB -23.74 dB 1:05 12-Requiem : 'Goin' Home To The Rock'
DR12 -2.01 dB -17.25 dB 3:13 13-Love The World Away

Number of tracks: 13
Official DR value: DR14

Samplerate: 44100 Hz
Channels: 2
Bits per sample: 16
Bitrate: 805 kbps
Codec: FLAC

foobar2000 1.3.7 / Dynamic Range Meter 1.1.1
log date: 2015-08-29 22:05:57

Analyzed: / Share Your Love

DR Peak RMS Duration Track

DR14 -1.66 dB -17.78 dB 2:35 01-Blaze Of Glory
DR13 -3.70 dB -20.63 dB 3:29 02-I Don't Need You
DR14 -2.08 dB -18.71 dB 2:48 03-The Good Life
DR12 -2.76 dB -18.49 dB 2:31 04-Makes Me Wonder If I Ever Said Goodbye
DR13 -1.13 dB -17.59 dB 4:44 05-Through The Years
DR13 -3.00 dB -18.88 dB 3:19 06-Share Your Love With Me
DR14 -1.20 dB -17.41 dB 4:13 07-So In Love With You
DR14 -1.11 dB -18.88 dB 4:29 08-Goin' Back To Alabama
DR13 -1.94 dB -20.40 dB 5:04 09-Without You In My Life
DR15 -0.49 dB -18.93 dB 2:38 10-Gray Beard
DR11 -1.51 dB -15.84 dB 3:53 11-Lady

Number of tracks: 11
Official DR value: DR13

Samplerate: 44100 Hz
Channels: 2
Bits per sample: 16
Bitrate: 753 kbps
Codec: FLAC

All thanks to - modest_suetsky & his friend

password: BlondStyle


DOWNLOAD LINKS:
Buy Premium To Support Me & Get Resumable Support & Max Speed


Links are Interchangeable - No Password - Single Extraction
Direct Download

Tags: Rogers, Gideon, Reissue

Comments
Name:*
E-Mail:*
Add Comments:
Enter Code: *