Download Now

Venja - 2 Albums (1999-2010)

Venja - 2 Albums (1999-2010)
EAC Rip | FLAC (image/tracks+.cue+log) - 594 MB | MP3 CBR 320 kbps (LAME 3.93) - 221 MB | Covers - 192 MB
Genre: Electronic, New Age | RAR 3% Rec. | Label: Innovative Communication, DA Music

"Venja brings together the extremes of musical tradition. The computer technology of the high-tech era together with the soft timbre of classically trained female singers. The two are finely balanced. When anyone accuses the creators of electronic music that their sounds are subdued and bizarre, Venja can teach them the error of their ways. Even though this musician considers himself to be a synthesizer purist. Venja lives in the eastern part of Belgium and has an education into digital technologies and so he build his first instruments himself. The millions of sounds which he can entice out of these instruments fascinate him and fill him with enthusiasm..."

Venja - 2 Albums (1999-2010)

Venja - Curves (1999) (Repost)
EAC Rip | FLAC (image+.cue+log) - 294 MB | MP3 CBR 320 kbps (LAME 3.93) - 110 MB | Covers - 35 MB
Genre: Electronic, New Age | RAR 3% Rec. | Label: Innovative Communication (87 2339-2)

Tracklist:
01. Reaching Out
02. The Garden Of Make Believe
03. L.A. Night Chase
04. 60's Flowers
05. Oxygen And Bubbles
06. Groove Delight
07.. The Garden Of Make Believe (Radio)
08. Afloat
09. Buchstabe Suppe
10. Moving On Curves

Total time: 46:46

Exact Audio Copy V1.0 beta 4 from 7. December 2014

Отчёт EAC об извлечении, выполненном 16. марта 2015, 23:43

Venja / Curves

Дисковод: PLEXTOR BD-R PX-B950SA Adapter: 1 ID: 0

Режим чтения : Достоверность
Использование точного потока : Да
Отключение кэша аудио : Да
Использование указателей C2 : Нет

Коррекция смещения при чтении : 6
Способность читать области Lead-in и Lead-out : Нет
Заполнение пропущенных сэмплов тишиной : Да
Удаление блоков с тишиной в начале и конце : Нет
При вычислениях CRC использовались нулевые сэмплы : Да
Интерфейс : Встроенный Win32-интерфейс для Win NT/2000

Выходной формат : Пользовательский кодировщик
Выбранный битрейт : 1024 kBit/s
Качество : Высокий
Добавление ID3-тега : Нет
Утилита сжатия : C:\Program Files (x86)\Exact Audio Copy\FLAC\FLAC.EXE
Дополнительные параметры : -6 -V -T "ARTIST=%artist%" -T "TITLE=%title%" -T "ALBUM=%albumtitle%" -T "DATE=%year%" -T "TRACKNUMBER=%tracknr%" -T "GENRE=%genre%" -T "COMMENT=%comment%" -T "BAND=%albuminterpret%" -T "ALBUMARTIST=%albuminterpret%" -T "COMPOSER=%composer%" %haslyrics%--tag-from-file=LYRICS="%lyricsfile%"%haslyrics% -T "DISCNUMBER=%cdnumber%" -T "TOTALDISCS=%totalcds%" -T "TOTALTRACKS=%numtracks%" %hascover%--picture="%coverfile%"%hascover% %source% -o %dest%

TOC извлечённого CD Трек | Старт | Длительность | Начальный сектор | Конечный сектор

1 | 0:00.00 | 5:53.30 | 0 | 26504
2 | 5:53.30 | 5:26.55 | 26505 | 51009
3 | 11:20.10 | 4:47.25 | 51010 | 72559
4 | 16:07.35 | 6:26.57 | 72560 | 101566
5 | 22:34.17 | 2:23.63 | 101567 | 112354
6 | 24:58.05 | 4:47.12 | 112355 | 133891
7 | 29:45.17 | 3:51.25 | 133892 | 151241
8 | 33:36.42 | 4:46.48 | 151242 | 172739
9 | 38:23.15 | 3:59.45 | 172740 | 190709
10 | 42:22.60 | 4:23.32 | 190710 | 210466

Характеристики диапазона извлечения и сообщения об ошибках

Выбранный диапазон Имя файла N:\ТОРРЕНТЫ\Venja - Curves\Venja - Curves.wav Пиковый уровень 99.9 %
Скорость извлечения 8.0 X
Качество диапазона 100.0 %
CRC теста C1C9226E
CRC копии C1C9226E
Копирование... OK

Ошибок не произошло


AccurateRip: сводка

Трек 1 : извлечено точно (доверие 2) [75C80570] (AR v1)
Трек 2 : извлечено точно (доверие 2) [0C24DC36] (AR v1)
Трек 3 : извлечено точно (доверие 2) [DE0ADAB6] (AR v1)
Трек 4 : извлечено точно (доверие 2) [ECB7F2C7] (AR v1)
Трек 5 : извлечено точно (доверие 2) [38467748] (AR v1)
Трек 6 : извлечено точно (доверие 2) [1802D740] (AR v1)
Трек 7 : извлечено точно (доверие 2) [93A381AB] (AR v1)
Трек 8 : извлечено точно (доверие 2) [DBF7EF5C] (AR v1)
Трек 9 : извлечено точно (доверие 2) [E4CC9D94] (AR v1)
Трек 10 : извлечено точно (доверие 2) [478B5EFF] (AR v1)

Все треки извлечены точно

Конец отчёта

- CUETools DB Plugin V2.1.4

[CTDB TOCID: R9Zg9BFa8BT0SBy8BtysElFLrSA-] disk not present in database
Submit result: R9Zg9BFa8BT0SBy8BtysElFLrSA- has been uploaded

==== Контрольная сумма отчёта AE6290A757E5F1270B8E43A601766F068BAB8C8126BB4DE74A9DED396742B32B ====

[CUETools log; Date: 08.08.2015 12:19:33; Version: 2.1.4]
[CTDB TOCID: R9Zg9BFa8BT0SBy8BtysElFLrSA-] found.
Track | CTDB Status
1 | (1/1) Accurately ripped
2 | (1/1) Accurately ripped
3 | (1/1) Accurately ripped
4 | (1/1) Accurately ripped
5 | (1/1) Accurately ripped
6 | (1/1) Accurately ripped
7 | (1/1) Accurately ripped
8 | (1/1) Accurately ripped
9 | (1/1) Accurately ripped
10 | (1/1) Accurately ripped
[AccurateRip ID: 0012a988-00928513-870af60a] found.
Track [ CRC | V2 ] Status
01 [75c80570|1589a0d1] (2+0/2) Accurately ripped
02 [0c24dc36|69048c7f] (2+0/2) Accurately ripped
03 [de0adab6|0430c5f4] (2+0/2) Accurately ripped
04 [ecb7f2c7|8d933084] (2+0/2) Accurately ripped
05 [38467748|04f4937f] (2+0/2) Accurately ripped
06 [1802d740|ec687d85] (2+0/2) Accurately ripped
07 [93a381ab|3f336201] (2+0/2) Accurately ripped
08 [dbf7ef5c|caa4e0ae] (2+0/2) Accurately ripped
09 [e4cc9d94|5cc3c0e4] (2+0/2) Accurately ripped
10 [478b5eff|fb78a630] (2+0/2) Accurately ripped

Track Peak [ CRC32 ] [W/O NULL] [ LOG ]
-- 99,9 [C1C9226E] [37D0AF62] CRC32
01 99,3 [A221C3CC] [ED7A6377]
02 94,1 [187C844F] [0DB820DF]
03 99,9 [1BE43EC7] [05E5308A]
04 99,9 [707DB9C3] [3A72A947]
05 51,2 [3FF1AB87] [70E59AE3]
06 99,9 [0DAF4511] [C487B150]
07 99,9 BB7D9EF 81A6132
08 95,6 [D8DAD510] [9198C72C]
09 99,9 C8065B7 [7015C5D2]
10 98,7 DCCB3D5 [1C6BAE2D]


Venja - 2 Albums (1999-2010)

Venja - Fantasy Journeys II (2010)
EAC Rip | FLAC (tracks+.cue+log) - 300 MB | MP3 CBR 320 kbps (LAME 3.93) - 111 MB | Covers - 157 MB
Genre: Electronic, New Age | RAR 3% Rec. | Label: DA Music (873305-2)

Tracklist:
01. Beneath My Wings
02. See The Tress Dance
03. Solid On The Rock
04. Lily Is Dreaming Again
05. Sensing The Spheres
06. Everything Is Sometimes
07. A Dash Of Soul
08. It Rains In My Heart

Note: It's a remastered re-release of "A Dash of Soul" (1996) and "Rapture!" (1992).

Tracks: 1,3,5,6,7,8 - are taken from "A Dash Of Soul"
Tracks: 2,4 - are taken from "Rapture!"

Total time: 47:18

Exact Audio Copy V1.0 beta 3 from 29. August 2011

EAC extraction logfile from 9. February 2014, 14:12

Venja / Fantasy Journeys II (Fantasie-Reisen II)

Used drive : ASUS BW-12B1ST Adapter: 1 ID: 1

Read mode : Secure
Utilize accurate stream : Yes
Defeat audio cache : Yes
Make use of C2 pointers : Yes

Read offset correction

: 6
Overread into Lead-In and Lead-Out : No
Fill up missing offset samples with silence : Yes
Delete leading and trailing silent blocks : No
Null samples used in CRC calculations : Yes
Used interface
: Native Win32 interface for Win NT & 2000
Gap handling
: Appended to previous track

Used output format : User Defined Encoder
Selected bitrate : 1024 kBit/s
Quality : High
Add ID3 tag : No
Command line compressor : C:\Program Files (x86)\Exact Audio Copy\Flac\flac.exe
Additional command line options : -8 -V -T "ARTIST=%artist%" -T "TITLE=%title%" -T "ALBUM=%albumtitle%" -T "DATE=%year%" -T "TRACKNUMBER=%tracknr%" -T "GENRE=%genre%" -T "PERFORMER=%albuminterpret%" -T "COMPOSER=%composer%" %haslyrics%--tag-from-file=LYRICS="%lyricsfile%"%haslyrics% -T "ALBUMARTIST=%albumartist%" -T "DISCNUMBER=%cdnumber%" -T "TOTALDISCS=%totalcds%" -T "TOTALTRACKS=%numtracks%" -T "COMMENT=%comment%" %source% -o %dest%

TOC of the extracted CD Track | Start | Length | Start sector | End sector
--1 | 0:00.00 | 5:37.51 | 0 | 25325 2 | 5:37.51 | 5:56.12 | 25326 | 52037 3 | 11:33.63 | 5:14.67 | 52038 | 75654 4 | 16:48.55 | 7:13.10 | 75655 | 108139 5 | 24:01.65 | 6:11.39 | 108140 | 136003 6 | 30:13.29 | 6:09.49 | 136004 | 163727 7 | 36:23.03 | 5:04.73 | 163728 | 186600 8 | 41:28.01 | 5:50.32 | 186601 | 212882

Track 1 Filename E:\Venja - Fantasy Journeys II (Fantasie-Reisen II) (2010)\01 Venja - Beneath My Wings.wav Pre-gap length 0:00:02.00 Peak level 96.5 %
Extraction speed 6.9 X
Track quality 100.0 %
Test CRC 1BEFBE3A
Copy CRC 1BEFBE3A
Track not present in AccurateRip database
Copy OK

Track 2 Filename E:\Venja - Fantasy Journeys II (Fantasie-Reisen II) (2010)\02 Venja - See The Tress Dance.wav Pre-gap length 0:00:01.98 Peak level 96.0 %
Extraction speed 7.9 X
Track quality 100.0 %
Test CRC 7EFBA513
Copy CRC 7EFBA513
Track not present in AccurateRip database
Copy OK

Track 3 Filename E:\Venja - Fantasy Journeys II (Fantasie-Reisen II) (2010)\03 Venja - Solid On The Rock.wav Pre-gap length 0:00:01.98 Peak level 96.5 %
Extraction speed 8.5 X
Track quality 100.0 %
Test CRC E5F3A765
Copy CRC E5F3A765
Track not present in AccurateRip database
Copy OK

Track 4 Filename E:\Venja - Fantasy Journeys II (Fantasie-Reisen II) (2010)\04 Venja - Lily Is Dreaming Again.wav Pre-gap length 0:00:01.98 Peak level 81.3 %
Extraction speed 9.7 X
Track quality 100.0 %
Test CRC 71C23B94
Copy CRC 71C23B94
Track not present in AccurateRip database
Copy OK

Track 5 Filename E:\Venja - Fantasy Journeys II (Fantasie-Reisen II) (2010)\05 Venja - Sensing The Spheres.wav Pre-gap length 0:00:01.98 Peak level 96.5 %
Extraction speed 10.3 X
Track quality 100.0 %
Test CRC 9604E3F3
Copy CRC 9604E3F3
Track not present in AccurateRip database
Copy OK

Track 6 Filename E:\Venja - Fantasy Journeys II (Fantasie-Reisen II) (2010)\06 Venja - Everything Is Sometimes.wav Pre-gap length 0:00:01.98 Peak level 96.5 %
Extraction speed 9.1 X
Track quality 99.9 %
Test CRC 1AA8EA7A
Copy CRC 1AA8EA7A
Track not present in AccurateRip database
Copy OK

Track 7 Filename E:\Venja - Fantasy Journeys II (Fantasie-Reisen II) (2010)\07 Venja - A Dash Of Soul.wav Pre-gap length 0:00:01.98 Peak level 96.5 %
Extraction speed 9.0 X
Track quality 99.9 %
Test CRC 5921401B
Copy CRC 5921401B
Track not present in AccurateRip database
Copy OK

Track 8 Filename E:\Venja - Fantasy Journeys II (Fantasie-Reisen II) (2010)\08 Venja - It Rains In My Heart.wav Pre-gap length 0:00:01.98 Peak level 96.5 %
Extraction speed 11.9 X
Track quality 100.0 %
Test CRC 0C6B111E
Copy CRC 0C6B111E
Track not present in AccurateRip database
Copy OK

None of the tracks are present in the AccurateRip database

No errors occurred

End of status report

==== Log checksum 5FCB21795D206F4E3DDAA3C81189A96FAB787EDA12C52953ACEDD5E763536600 ====

[CUETools log; Date: 08.08.2015 12:12:06; Version: 2.1.4]
[CTDB TOCID: 98BAh6KCkpqL5sRNPxxZisCh89g-] found.
Track | CTDB Status
1 | (1/1) Accurately ripped
2 | (1/1) Accurately ripped
3 | (1/1) Accurately ripped
4 | (1/1) Accurately ripped
5 | (1/1) Accurately ripped
6 | (1/1) Accurately ripped
7 | (1/1) Accurately ripped
8 | (1/1) Accurately ripped
[AccurateRip ID: 000ea777-0061f9e2-610b1608] disk not present in database.

Track Peak [ CRC32 ] [W/O NULL] [ LOG ]
-- 96,5 [0178B772] [622D787B]
01 96,5 [1BEFBE3A] [ACA4F8AA] CRC32
02 96,0 [7EFBA513] [2D7A485A] CRC32
03 96,5 [E5F3A765] [6578D8EB] CRC32
04 81,2 [71C23B94] [44E1CC2F] CRC32
05 96,5 [9604E3F3] [15BED521] CRC32
06 96,5 [1AA8EA7A] [46F4F525] CRC32
07 96,5 [5921401B] [97E5D9BF] CRC32
08 96,5 [0C6B111E] [9A1BC2B2] CRC32

Thanks to Мурзичек
DOWNLOAD LINKS:
Buy Premium To Support Me & Get Resumable Support & Max Speed


Links are Interchangeable - No Password - Single Extraction
Direct Download

Tags: Albums

Comments
Name:*
E-Mail:*
Add Comments:
Enter Code: *