Download Now


http://i70.fastpic.ru/big/2015/0806/a5/52fb353d6df22dbf67f3f69aa72c9fa5.jpg
Franz Schubert - Consortium Classicum - Octet F major D 803
EAC+LOG+CUE | FLAC: 234 MB | Full Artwork: 78 MB | 5% Recovery Info
Label/Cat#: MDG "Gold" # 301 0768-2 | Country/Year: Germany 1997
Genre: Classical | Style: Viennese School, Octet

""...it is a warm and wonderful performance that will grow on you with each hearing." ~Fanfare"

Exact Audio Copy V1.0 beta 3 from 29. August 2011

EAC extraction logfile from 30. September 2013, 9:47

Consortium Classicum / Schubert: Octet F major D 803

Used drive : PIONEER BD-RW BDR-206 Adapter: 0 ID: 2

Read mode : Secure
Utilize accurate stream : Yes
Defeat audio cache : Yes
Make use of C2 pointers : No

Read offset correction : 667
Overread into Lead-In and Lead-Out : No
Fill up missing offset samples with silence : Yes
Delete leading and trailing silent blocks : No
Null samples used in CRC calculations : Yes
Used interface : Native Win32 interface for Win NT & 2000

Used output format : User Defined Encoder
Selected bitrate : 1024 kBit/s
Quality : High
Add ID3 tag : Yes
Command line compressor : C:\Program Files\FLAC\flac.exe
Additional command line options : -5 -T "Artist=%artist%" -T "Title=%title%" -T "Album=%albumtitle%" -T "Date=%year%" -T "Tracknumber=%tracknr%" -T "Genre=%genre%" %source% -o %dest%

TOC of the extracted CD

Track | Start | Length | Start sector | End sector
---------------------------------------------------------
1 | 0:00.00 | 14:47.50 | 0 | 66574
2 | 14:47.50 | 12:53.15 | 66575 | 124564
3 | 27:40.65 | 6:11.70 | 124565 | 152459
4 | 33:52.60 | 12:34.35 | 152460 | 209044
5 | 46:27.20 | 7:42.32 | 209045 | 243726
6 | 54:09.52 | 9:31.53 | 243727 | 286604

Range status and errors

Selected range

Filename F:\=== VINYL RIPS ===\=== EAC===\X FRESH RIP\Schubert- Consortium Classicum - Octet F major D 803.wav

Peak level 85.4 %
Extraction speed 7.9 X
Range quality 100.0 %
Copy CRC 119A6A72
Copy OK

No errors occurred


AccurateRip summary

Track 1 cannot be verified as accurate (confidence 3) [88984485], AccurateRip returned [139CCE2C] (AR v2)
Track 2 cannot be verified as accurate (confidence 3) [55515C5B], AccurateRip returned [4FD66E74] (AR v2)
Track 3 cannot be verified as accurate (confidence 3) [F658CF17], AccurateRip returned [F0476CDC] (AR v2)
Track 4 cannot be verified as accurate (confidence 3) [E56C286A], AccurateRip returned [089BDF51] (AR v2)
Track 5 cannot be verified as accurate (confidence 3) [D6E4BA04], AccurateRip returned [213FBCB5] (AR v2)
Track 6 cannot be verified as accurate (confidence 3) [AD81DC83], AccurateRip returned [0113CD22] (AR v2)

No tracks could be verified as accurate
You may have a different pressing from the one(s) in the database

End of status report

---- CUETools DB Plugin V2.1.3

[CTDB TOCID: tWzrgMJFcjhSbmrgUs9b5TQEMM4-] found, Submit result: tWzrgMJFcjhSbmrgUs9b5TQEMM4- has been confirmed
[59288d59] (1/1) Accurately ripped

==== Log checksum A2CC135AD73DA34DAFD6D8E7CDC797A6DC7A7FA23FB666EA8A1C6C6357B338AD ====
Download link:



Links are Interchangeable - No Password - Single Extraction
Direct Download

Tags: Schubert, Consortium, Classicum

Comments
Name:*
E-Mail:*
Add Comments:
Enter Code: *