Download Now

George Benson - Love Remembers (1993) [US, Warner Bros. 9 26685-2]

George Benson - Love Remembers (1993)
EAC Rip | FLAC (Img) + Cue + Log ~ 427 Mb | MP3 CBR320 ~ 171 Mb
Scans Included (JPG, 400 dpi) | RAR 5% Recovery
Smooth Jazz, Crossover Jazz | Warner Bros. Records #9 26685-2

"By the time George Benson released Love Remembers for Warner in 1993, he had basically accomplished everything a musician could ever dream of: he has played with a who's who of jazz greats, scored big as both a jazz and an R&B artist, won numerous Grammys, and had his name become synonymous with two different radio formats: adult contemporary and smooth jazz. Long the bane of "serious" jazz critics, Benson didn't even need to think about it: he made music that communicated to millions from one record to the next -- the man had a single or album somewhere on the charts ubiquitously from 1975 until the turn of the 20th century! This 12-track set listed a number of fine producers on its roster including Bob James, Stewart Levine, Gary Henry, Jimmy George, and David Gamson, in addition to the man himself..."

Official Website | Wiki | Discogs | All Music
***************

George Benson - Love Remembers (1993) [US, Warner Bros. 9 26685-2]

Track List:

01. I'll Be Good To You [05:08]
02. Got To Be There [04:50]
03. My Heart Is Dancing [05:15]
04. Love Of My Life [04:15]
05. Kiss And Make Up [04:05]
06. Come Into My World [04:50]
07. Love Remembers [05:44]
08. Willing To Fight [06:22]
09. Somewhere Island [05:39]
10. Lovin' On Borrowed Time [04:14]
11. Lost In Love [05:08]
12. Calling You [05:45]

Exact Audio Copy V1.1 from 23. June 2015

EAC extraction logfile from 23. July 2015, 13:11

George Benson / Love Remembers

Used drive : MATSHITADVD+-RW SW830 Adapter: 1 ID: 0

Read mode : Burst

Read offset correction

: 6
Overread into Lead-In and Lead-Out : No
Fill up missing offset samples with silence : Yes
Delete leading and trailing silent blocks : No
Null samples used in CRC calculations : Yes
Used interface
: Native Win32 interface for Win NT & 2000

Used output format : User Defined Encoder
Selected bitrate : 768 kBit/s
Quality : High
Add ID3 tag : No
Command line compressor : C:\Program Files (x86)\Exact Audio Copy\FLAC\FLAC.EXE
Additional command line options : -6 -V -T "ARTIST=%artist%" -T "TITLE=%title%" -T "ALBUM=%albumtitle%" -T "DATE=%year%" -T "TRACKNUMBER=%tracknr%" -T "GENRE=%genre%" -T "COMMENT=%comment%" -T "BAND=%albuminterpret%" -T "ALBUMARTIST=%albuminterpret%" -T "COMPOSER=%composer%" %haslyrics%--tag-from-file=LYRICS="%lyricsfile%"%haslyrics% -T "DISCNUMBER=%cdnumber%" -T "TOTALDISCS=%totalcds%" -T "TOTALTRACKS=%numtracks%" %hascover%--picture="%coverfile%"%hascover% %source% -o %dest%

TOC of the extracted CD Track | Start | Length | Start sector | End sector
--1 | 0:00.32 | 5:07.30 | 32 | 23086 2 | 5:07.62 | 4:49.18 | 23087 | 44779 3 | 9:57.05 | 5:14.65 | 44780 | 68394 4 | 15:11.70 | 4:14.52 | 68395 | 87496 5 | 19:26.47 | 4:04.20 | 87497 | 105816 6 | 23:30.67 | 4:49.13 | 105817 | 127504 7 | 28:20.05 | 5:43.47 | 127505 | 153276 8 | 34:03.52 | 6:21.65 | 153277 | 181916 9 | 40:25.42 | 5:38.65 | 181917 | 207331
10 | 46:04.32 | 4:13.38 | 207332 | 226344
11 | 50:17.70 | 5:07.47 | 226345 | 249416
12 | 55:25.42 | 5:44.08 | 249417 | 275224

Range status and errors

Selected range Filename C:\Users\Boris\Desktop\benson\George Benson - Love Remembers.wav Peak level 100.0 %
Extraction speed 27.4 X
Test CRC 352E86AF
Copy CRC 352E86AF
Copy OK

No errors occurred


AccurateRip summary

Track 1 accurately ripped (confidence 33) [190485CF] (AR v2)
Track 2 accurately ripped (confidence 32) [841AB317] (AR v2)
Track 3 accurately ripped (confidence 33) 82BAFCB (AR v2)
Track 4 accurately ripped (confidence 32) [5B592047] (AR v2)
Track 5 accurately ripped (confidence 32) [D77FBB06] (AR v2)
Track 6 accurately ripped (confidence 32) [8FEF9DA0] (AR v2)
Track 7 accurately ripped (confidence 33) [F37EC4AE] (AR v2)
Track 8 accurately ripped (confidence 33) [6FB8A32B] (AR v2)
Track 9 accurately ripped (confidence 32) [178DA71B] (AR v2)
Track 10 accurately ripped (confidence 32) [1D390A7A] (AR v2)
Track 11 accurately ripped (confidence 32) [8FD662B7] (AR v2)
Track 12 accurately ripped (confidence 31) [09237F51] (AR v2)

All tracks accurately ripped

End of status report

- CUETools DB Plugin V2.1.6

[CTDB TOCID: fyWE.e3JwsfbNU1gD8haFduCdDQ-] found
Submit result: fyWE.e3JwsfbNU1gD8haFduCdDQ- has been confirmed
Track | CTDB Status
1 | (7/7) Accurately ripped
2 | (7/7) Accurately ripped
3 | (7/7) Accurately ripped
4 | (7/7) Accurately ripped
5 | (7/7) Accurately ripped
6 | (7/7) Accurately ripped
7 | (7/7) Accurately ripped
8 | (7/7) Accurately ripped
9 | (7/7) Accurately ripped
10 | (7/7) Accurately ripped
11 | (6/7) Accurately ripped
12 | (6/7) Accurately ripped

==== Log checksum 4C5C753318FD16C80A301644AFD73F7119CAF117EAA212BD52EA084A39FD7ED2 ====

foobar2000 1.2.6 / Dynamic Range Meter 1.1.1
log date: 2015-07-25 21:44:56

Analyzed: George Benson / Love Remembers

DR Peak RMS Duration Track

DR11 -0.48 dB -13.83 dB 5:07 01-I'll Be Good To You
DR11 -0.09 dB -12.72 dB 4:49 02-Got To Be There
DR11 -0.08 dB -13.13 dB 5:15 03-My Heart Is Dancing
DR11 0.00 dB -13.50 dB 4:15 04-Love Of My Life
DR11 -0.20 dB -13.66 dB 4:04 05-Kiss And Make Up
DR11 -0.07 dB -12.60 dB 4:49 06-Come Into My World
DR11 -0.02 dB -13.43 dB 5:44 07-Love Remembers
DR10 0.00 dB -12.17 dB 6:22 08-Willing To Fight
DR11 0.00 dB -12.71 dB 5:39 09-Somewhere Island
DR10 -0.08 dB -12.02 dB 4:14 10-Lovin' On Borrowed Time
DR11 -0.15 dB -13.52 dB 5:08 11-Lost In Love
DR10 -0.06 dB -12.01 dB 5:44 12-Calling You

Number of tracks: 12
Official DR value: DR11

Samplerate: 44100 Hz
Channels: 2
Bits per sample: 16
Bitrate: 877 kbps
Codec: FLAC

[CUETools log; Date: 25.07.2015 21:44:52; Version: 2.1.5]
Pregap length 00:00:32.
[CTDB TOCID: fyWE.e3JwsfbNU1gD8haFduCdDQ-] found.
Track | CTDB Status
1 | (8/8) Accurately ripped
2 | (8/8) Accurately ripped
3 | (8/8) Accurately ripped
4 | (8/8) Accurately ripped
5 | (8/8) Accurately ripped
6 | (8/8) Accurately ripped
7 | (8/8) Accurately ripped
8 | (8/8) Accurately ripped
9 | (8/8) Accurately ripped
10 | (8/8) Accurately ripped
11 | (7/8) Accurately ripped
12 | (7/8) Accurately ripped
[AccurateRip ID: 001ab662-00fa7f31-9f0e550c] found.
Track [ CRC | V2 ] Status
01 [6e6cafd7|190485cf] (31+33/66) Accurately ripped
02 [0baaf3bf|841ab317] (31+32/65) Accurately ripped
03 [a1bb1152|b82bafcb] (31+33/66) Accurately ripped
04 [1bb86db5|5b592047] (31+32/65) Accurately ripped
05 [9ea7a723|d77fbb06] (31+32/65) Accurately ripped
06 00a9be4|8fef9da0 (31+32/65) Accurately ripped
07 [df921c18|f37ec4ae] (31+33/66) Accurately ripped
08 [465f3502|6fb8a32b] (30+33/65) Accurately ripped
09 [65a6352f|178da71b] (31+32/65) Accurately ripped
10 [a4d99709|1d390a7a] (31+32/65) Accurately ripped
11 [2b711914|8fd662b7] (30+32/64) Accurately ripped
12 [a85656ea|09237f51] (30+31/63) Accurately ripped
Offsetted by -42:
01 [87f609d0] (00/66) No match (V2 was not tested)
02 [f06d3769] (00/65) No match (V2 was not tested)
03 [881525a8] (00/66) No match (V2 was not tested)
04 [efa367b9] (00/65) No match (V2 was not tested)
05 [4d7754f8] (00/65) No match (V2 was not tested)
06 [d2906349] (00/65) No match (V2 was not tested)
07 [183cce74] (00/66) No match (V2 was not tested)
08 [c9e81243] (00/65) No match (V2 was not tested)
09 ede8224 (00/65) No match (V2 was not tested)
10 [3524bf7c] (00/65) No match (V2 was not tested)
11 [55272591] (00/64) No match (V2 was not tested)
12 [976a129d] (00/63) No match (V2 was not tested)

Track Peak [ CRC32 ] [W/O NULL] [ LOG ]
-- 100,0 [352E86AF] [77EB81FE] CRC32
01 94,6 [8687CD43] 1D6327A
02 98,9 [CAF8102B] [0FD38690]
03 99,1 [97747882] [321AEA5E]
04 99,9 [213AEC22] [F73F1316]
05 97,7 [0D98DCFD] [A9443C33]
06 99,1 [6B5E678C] [E605A9EF]
07 99,7 [CCDFD461] [FACD0EC5]
08 100,0 [50AD1E4E] [C8E6D62B]
09 100,0 [1F0C0363] [913E019C]
10 99,1 [E59656A5] [CA5523BF]
11 98,2 [2B074425] [4E8FE0C5]
12 99,3 [A74A3377] [930D1672]

George Benson - Love Remembers (1993) [US, Warner Bros. 9 26685-2]

All thanks go to Boris


DOWNLOAD LINKS:
Buy Premium To Support Me & Get Resumable Support & Max Speed


Links are Interchangeable - No Password - Single Extraction
Direct Download

Tags: George, Benson, Remembers, Warner

Comments
Name:*
E-Mail:*
Add Comments:
Enter Code: *