Download Now

Jay Stollman - Room For One More (2015)

Jay Stollman - Room For One More (2015)
EAC Rip | FLAC (Img) + Cue + Log ~ 394 Mb | MP3 CBR320 ~ 140 Mb
Scans Included (JPG, 300 dpi) | RAR 5% Recovery
Blues, Blues Rock | Number 7 Records #888295272957

"Jay Stollman has achieved unparalleled success as one of the most popular vocalists on the East Coast. He has performed around the world to rave reviews, sharing the stage with musical legends such as James Brown, Wilson Pickett, The Temptations, Four Tops, Jose Feliciano, Blues Traveler, Joan Osborne, Johnny Winter, Peter Frampton, Bo Diddley, Ronnie Spector, Felix Cavaliere, Tower of Power and Elton John, to name a few. Jay's vocals are a dynamic fusion of Blue Eyed Soul and Rock and Roll. Along with great performance ability and stage presence, a Jay Stollman show is always guaranteed to rock the house. Jay Stollman is currently appearing with The Johnny Winter Band as the front man and lead vocalist for the Johnny Winter Remembrance Shows, honoring the legendary bluesman, as well as performing with The Jay Stollman Blues Band. He is a standout performer and always a crowd favorite."

Official Website
***************

Jay Stollman - Room For One More (2015)

Track List:

01. Ride 'Till I'm Satisfied [04:41]
02. I'm Done [04:10]
03. Tired Of Tryin' [03:44]
04. Lonesome In My Bedroom [04:34]
05. I'd Rather Drink Muddy Water [03:37]
06. A Change Is Gonna Come [05:32]
07. Pucker Up Buttercup [03:15]
08. Back To Memphis [03:04]
09. Tumble [03:36]
10. Can't Slow Down [03:48]
11. Another Night To Cry [04:18]
12. Devil In Disguise [04:10]
13. Love Me & Leave Me [03:38]
14. Room For One More [04:17]

Exact Audio Copy V1.0 beta 6 from 9. April 2015

EAC extraction logfile from 24. July 2015, 0:02

Jay Stollman / Room For One More

Used drive : Optiarc DVD RW AD-5280S Adapter: 1 ID: 1

Read mode : Secure
Utilize accurate stream : Yes
Defeat audio cache : Yes
Make use of C2 pointers : No

Read offset correction

: 48
Overread into Lead-In and Lead-Out : No
Fill up missing offset samples with silence : Yes
Delete leading and trailing silent blocks : No
Null samples used in CRC calculations : Yes
Used interface
: Native Win32 interface for Win NT & 2000

Used output format : User Defined Encoder
Selected bitrate : 1024 kBit/s
Quality : High
Add ID3 tag : No
Command line compressor : C:\Program Files\Exact Audio Copy\flac-1.3.1-win\win32\flac.exe
Additional command line options : -8 -V -T "ARTIST=%artist%" -T "TITLE=%title%" -T "ALBUM=%albumtitle%" -T "DATE=%year%" -T "TRACKNUMBER=%tracknr%" -T "GENRE=%genre%" -T "COMMENT=%comment%" %source% -o %dest%

TOC of the extracted CD Track | Start | Length | Start sector | End sector
--1 | 0:00.00 | 4:40.37 | 0 | 21036 2 | 4:40.37 | 4:09.05 | 21037 | 39716 3 | 8:49.42 | 3:43.32 | 39717 | 56473 4 | 12:32.74 | 4:33.09 | 56474 | 76957 5 | 17:06.08 | 3:36.49 | 76958 | 93206 6 | 20:42.57 | 5:31.09 | 93207 | 118040 7 | 26:13.66 | 3:14.43 | 118041 | 132633 8 | 29:28.34 | 3:03.72 | 132634 | 146430 9 | 32:32.31 | 3:35.33 | 146431 | 162588
10 | 36:07.64 | 3:47.25 | 162589 | 179638
11 | 39:55.14 | 4:17.13 | 179639 | 198926
12 | 44:12.27 | 4:09.10 | 198927 | 217611
13 | 48:21.37 | 3:37.16 | 217612 | 233902
14 | 51:58.53 | 4:16.16 | 233903 | 253118

Range status and errors

Selected range Filename C:\Sket4er\Jay Stollman - Room For One More 2015 flac\Jay Stollman - Room For One More.wav Peak level 100.0 %
Extraction speed 4.1 X
Range quality 100.0 %
Test CRC 935BD74A
Copy CRC 935BD74A
Copy OK

No errors occurred


AccurateRip summary

Track 1 not present in database
Track 2 not present in database
Track 3 not present in database
Track 4 not present in database
Track 5 not present in database
Track 6 not present in database
Track 7 not present in database
Track 8 not present in database
Track 9 not present in database
Track 10 not present in database
Track 11 not present in database
Track 12 not present in database
Track 13 not present in database
Track 14 not present in database

None of the tracks are present in the AccurateRip database

End of status report

- CUETools DB Plugin V2.1.6

[CTDB TOCID: 3ByPMnmuXeW4eSe2HNE49HkffDo-] disk not present in database
Submit result: 3ByPMnmuXeW4eSe2HNE49HkffDo- has been uploaded

==== Log checksum 1DC4CFA767F4E22F77ACAB23B1CBA69FCE17236E8ED75ADF7E3039347868D4E6 ====

foobar2000 1.2.6 / Dynamic Range Meter 1.1.1
log date: 2015-07-24 23:56:58

Analyzed: Jay Stollman / Room For One More

DR Peak RMS Duration Track

DR7 0.00 dB -8.06 dB 4:40 01-Ride 'Till I'm Satisfied
DR8 0.00 dB -9.44 dB 4:09 02-I'm Done
DR9 0.00 dB -9.98 dB 3:43 03-Tired Of Tryin'
DR9 0.00 dB -10.71 dB 4:33 04-Lonesome In My Bedroom
DR8 0.00 dB -9.64 dB 3:37 05-I'd Rather Drink Muddy Water
DR10 0.00 dB -11.62 dB 5:31 06-A Change Is Gonna Come
DR8 0.00 dB -8.72 dB 3:15 07-Pucker Up Buttercup
DR6 -1.10 dB -7.59 dB 3:04 08-Back To Memphis
DR8 0.00 dB -9.23 dB 3:35 09-Tumble
DR8 0.00 dB -9.52 dB 3:47 10-Can't Slow Down
DR8 0.00 dB -10.01 dB 4:17 11-Another Night To Cry
DR7 0.00 dB -8.45 dB 4:09 12-Devil In Disguise
DR7 0.00 dB -8.64 dB 3:37 13-Love Me & Leave Me
DR13 0.00 dB -16.62 dB 4:16 14-Room For One More

Number of tracks: 14
Official DR value: DR8

Samplerate: 44100 Hz
Channels: 2
Bits per sample: 16
Bitrate: 921 kbps
Codec: FLAC

[CUETools log; Date: 24.07.2015 23:56:58; Version: 2.1.5]
[CTDB TOCID: 3ByPMnmuXeW4eSe2HNE49HkffDo-] found.
Track | CTDB Status
1 | (1/1) Accurately ripped
2 | (1/1) Accurately ripped
3 | (1/1) Accurately ripped
4 | (1/1) Accurately ripped
5 | (1/1) Accurately ripped
6 | (1/1) Accurately ripped
7 | (1/1) Accurately ripped
8 | (1/1) Accurately ripped
9 | (1/1) Accurately ripped
10 | (1/1) Accurately ripped
11 | (1/1) Accurately ripped
12 | (1/1) Accurately ripped
13 | (1/1) Accurately ripped
14 | (1/1) Accurately ripped
[AccurateRip ID: 001d7430-0137ac5a-bd0d2e0e] disk not present in database.

Track Peak [ CRC32 ] [W/O NULL] [ LOG ]
-- 100,0 [935BD74A] [2A270338] CRC32
01 99,9 50A5031 [7127F78B]
02 100,0 [F34A55FB] [51D76D6E]
03 99,9 [AD5C6BE0] [DE03B0AA]
04 100,0 [E4D80D73] 27F4D6E
05 99,9 D7DB72F [AB0241E9]
06 99,9 [A0BB6384] [9E579EE4]
07 99,9 [EAAF1937] [1C467C68]
08 88,1 [09161D50] [EE176534]
09 99,9 [44E73738] [9F622EC6]
10 99,9 [C68EDD7F] [6C49A1F3]
11 99,9 [241E168B] [088787A2]
12 100,0 [18C95701] [A08FD3B4]
13 100,0 [F8B21D94] [E26DA21F]
14 99,9 [EBE3E8DB] [DABB407B]

Jay Stollman - Room For One More (2015)



DOWNLOAD LINKS:
Buy Premium To Support Me & Get Resumable Support & Max Speed


Links are Interchangeable - No Password - Single Extraction
Direct Download

Tags: Stollman

Comments
Name:*
E-Mail:*
Add Comments:
Enter Code: *