Download Now

Albert Collins - Ice Pickin' (1978) [1990, US, Alligator Records ALCD 4713]

Albert Collins - Ice Pickin' (1978/1990)
EAC Rip | FLAC (Img) + Cue + Log ~ 209 Mb | MP3 CBR320 ~ 92 Mb
Scans (JPG, 600 dpi) ~ 107 Mb | RAR 5% Recovery
Blues| Alligator Records #ALCD 4713

"The great Texas guitarist's Alligator debut; a blues classic. Includes "Master Charge," "Conversation With Collins." Grammy nominee. "The most exciting blues LP of the year" -- Village Voice. Until this album was released in 1978, Albert Collins had been a journeyman Texas bluesman, little known and unrecorded for six years. His guitar playing here won him a new generation of fans, and set the stage for the popularity he enjoyed until his death. His clustered, sustained, choked, and bent notes, played with his thumb and fingers, set a generation of pickers agog. The tone was piercing; the timing impeccable. Collins' vocals were never quite as strong, but it scarcely mattered as he was the man for whom the electric guitar might have been invented. The eight songs on this set include "When the Welfare Turns Its Back on You," and several jaw-dropping instrumentals. -- Colin Escott"


Track List:

01. Honey. Hush! (Talking Woman Blues) [04:29]
02. When the Welfare Turns its Back on You [05:27]
03. Ice Pick [03:09]
04. Cold, Cold Feeling [05:20]
05. Too Tired [03:02]
06. Master Charge [05:12]
07. Conversation With Collins [08:52]
08. Avalanche [02:40]

Exact Audio Copy V1.0 beta 6 from 9. April 2015

EAC extraction logfile from 18. July 2015, 14:07

Albert Collins / Ice Pickin'

Used drive : PLEXTOR DVDR PX-891SA Adapter: 0 ID: 2

Read mode : Secure
Utilize accurate stream : Yes
Defeat audio cache : Yes
Make use of C2 pointers : No

Read offset correction

: 6
Overread into Lead-In and Lead-Out : No
Fill up missing offset samples with silence : Yes
Delete leading and trailing silent blocks : No
Null samples used in CRC calculations : Yes
Used interface
: Installed external ASPI interface

Used output format : User Defined Encoder
Selected bitrate : 320 kBit/s
Quality : High
Add ID3 tag : No
Command line compressor : C:\Program Files\Exact Audio Copy 1.0 b6\Exact Audio Copy\Flac\flac.exe
Additional command line options : -V -8 -T "Date=%year%" -T "Genre=%genre%" %source%

TOC of the extracted CD Track | Start | Length | Start sector | End sector
--1 | 0:00.00 | 4:28.35 | 0 | 20134 2 | 4:28.35 | 5:26.30 | 20135 | 44614 3 | 9:54.65 | 3:08.70 | 44615 | 58784 4 | 13:03.60 | 5:19.27 | 58785 | 82736 5 | 18:23.12 | 3:01.03 | 82737 | 96314 6 | 21:24.15 | 5:11.72 | 96315 | 119711 7 | 26:36.12 | 8:51.20 | 119712 | 159556 8 | 35:27.32 | 2:39.53 | 159557 | 171534

Range status and errors

Selected range Filename L:\Lossless Temp\Albert Collins\1978. Albert Collins - Ice Pickin' (1990 Alligator Records, ALCD 4713, USA)\Albert Collins - Ice Pickin'.wav Peak level 100.0 %
Extraction speed 7.4 X
Range quality 99.9 %
Test CRC 7BF2F0BA
Copy CRC 7BF2F0BA
Copy OK

No errors occurred


AccurateRip summary

Track 1 accurately ripped (confidence 17) [1471D07E] (AR v2)
Track 2 accurately ripped (confidence 17) [4D0BDE31] (AR v2)
Track 3 accurately ripped (confidence 17) [7A1261C0] (AR v2)
Track 4 accurately ripped (confidence 17) [08BFA9F2] (AR v2)
Track 5 accurately ripped (confidence 17) [60348761] (AR v2)
Track 6 accurately ripped (confidence 17) [462A1C51] (AR v2)
Track 7 accurately ripped (confidence 17) [90143E06] (AR v2)
Track 8 accurately ripped (confidence 17) [F33B5804] (AR v2)

All tracks accurately ripped

End of status report

==== Log checksum 8CEE3EE2313A29543EEDF2CC880CF447B63C727B6D27BB972F5846F1535B4766 ====

foobar2000 1.2.6 / Dynamic Range Meter 1.1.1
log date: 2015-07-19 04:21:13

Analyzed: Albert Collins / Ice Pickin'

DR Peak RMS Duration Track

DR15 0.00 dB -19.18 dB 4:28 01-Honey. Hush! (Talking Woman Blues)
DR15 -1.25 dB -19.81 dB 5:26 02-When the Welfare Turns its Back on You
DR14 -2.92 dB -18.33 dB 3:09 03-Ice Pick
DR16 -2.15 dB -23.37 dB 5:19 04-Cold, Cold Feeling
DR15 -0.80 dB -18.94 dB 3:01 05-Too Tired
DR16 -1.09 dB -20.02 dB 5:12 06-Master Charge
DR15 -3.39 dB -25.61 dB 8:51 07-Conversation With Collins
DR14 -0.92 dB -17.40 dB 2:40 08-Avalanche

Number of tracks: 8
Official DR value: DR15

Samplerate: 44100 Hz
Channels: 2
Bits per sample: 16
Bitrate: 731 kbps
Codec: FLAC

[CUETools log; Date: 19.07.2015 4:20:47; Version: 2.1.5]
[CTDB TOCID: FqUOUCd.wEnN0XWXuNRUF7UyikI-] found.
Track | CTDB Status
1 | (33/34) Accurately ripped
2 | (34/34) Accurately ripped
3 | (34/34) Accurately ripped
4 | (27/34) Accurately ripped
5 | (34/34) Accurately ripped
6 | (32/34) Accurately ripped
7 | (34/34) Accurately ripped
8 | (34/34) Accurately ripped
[AccurateRip ID: 000b7eef-004d320e-7008ef08] found.
Track [ CRC | V2 ] Status
01 [c927a8ab|1471d07e] (07+17/94) Accurately ripped
02 [0af12656|4d0bde31] (07+17/95) Accurately ripped
03 [4b3adbef|7a1261c0] (07+17/97) Accurately ripped
04 [6d37b7b1|08bfa9f2] (07+17/96) Accurately ripped
05 [7a0b497e|60348761] (07+17/97) Accurately ripped
06 [400dff4c|462a1c51] (07+17/94) Accurately ripped
07 [43410cae|90143e06] (07+17/96) Accurately ripped
08 [6c852f1a|f33b5804] (07+17/91) Accurately ripped
Offsetted by -646:
01 [ac239f3f] (18/94) Accurately ripped
02 [99bfdb1c] (18/95) Accurately ripped
03 [967490a5] (19/97) Accurately ripped
04 [ce091f85] (19/96) Accurately ripped
05 [10746ad6] (19/97) Accurately ripped
06 [a4c3a7ee] (19/94) Accurately ripped
07 [2eb68eb2] (19/96) Accurately ripped
08 [ecdb44b8] (17/91) Accurately ripped
Offsetted by 30:
01 845f6c7 (09/94) Accurately ripped
02 [0c3c5af8] (10/95) Accurately ripped
03 [611944e1] (10/97) Accurately ripped
04 [0b32bf8d] (10/96) Accurately ripped
05 [626a44c6] (10/97) Accurately ripped
06 [d12c65a2] (09/94) Accurately ripped
07 [af34759a] (10/96) Accurately ripped
08 [f799c184] (08/91) Accurately ripped
Offsetted by -1378:
01 [e1a693c7] (02/94) Accurately ripped
02 [7a2e7078] (02/95) Accurately ripped
03 [1a74f661] (02/97) Accurately ripped
04 f4f2c8d (02/96) Accurately ripped
05 [8433aac6] (02/97) Accurately ripped
06 [03111a22] (00/94) No match (V2 was not tested)
07 [e4b68e9a] (02/96) Accurately ripped
08 [11b21d04] (02/91) Accurately ripped
Offsetted by -667:
01 [84c19bc5] (00/94) No match (V2 was not tested)
02 [98d80311] (00/95) No match (V2 was not tested)
03 [d3f27a62] (00/97) No match (V2 was not tested)
04 [df73006b] (00/96) No match (V2 was not tested)
05 a98548a (00/97) No match (V2 was not tested)
06 [d8c7f9e5] (00/94) No match (V2 was not tested)
07 [e325c540] (00/96) No match (V2 was not tested)
08 [3eb344a1] (00/91) No match (V2 was not tested)
Offsetted by -287:
01 [5996ce7d] (00/94) No match
02 [53e5f315] (00/95) No match
03 [3e490106] (00/97) No match
04 [5b340ea3] (00/96) No match
05 [8f4b6e1a] (11/97) Accurately ripped
06 [06f3b4d1] (10/94) Accurately ripped
07 [3a864b98] (10/96) Accurately ripped
08 [20628335] (09/91) Accurately ripped
Offsetted by 301:
01 [a84f2fd5] (10/94) Accurately ripped
02 [6d419449] (10/95) Accurately ripped
03 [8483705a] (11/97) Accurately ripped
04 [739f757b] (00/96) No match (V2 was not tested)
05 [f35dde6a] (00/97) No match
06 [567abdcd] (00/94) No match
07 [7e5c5410] (00/96) No match
08 [2cc285b9] (00/91) No match

Track Peak [ CRC32 ] [W/O NULL] [ LOG ]
-- 100,0 [7BF2F0BA] [F0D4A998] CRC32
01 100,0 [64752E46] [11829AF3]
02 86,6 [80EA7EA1] 174E092
03 71,4 [C1570F8B] [FD937D6A]
04 78,0 57EE1F9 [940969AA]
05 91,2 [F9272619] [47490D5E]
06 88,2 [0A31D4C9] [E5CBA13C]
07 67,7 [827768F3] [57A59433]
08 89,9 [1D565C98] [6F29CE13]

Albert Collins - Ice Pickin' (1978) [1990, US, Alligator Records ALCD 4713]


DOWNLOAD LINKS:
Buy Premium To Support Me & Get Resumable Support & Max Speed


Links are Interchangeable - No Password - Single Extraction
Direct Download

Tags: Albert, Collins, Pickin, Alligator, Records

Comments
Name:*
E-Mail:*
Add Comments:
Enter Code: *