Download Now

Free - Free Live! (1971) [1992, Nippon Phonogram, PHCR 18709]

Free - Free Live! (1971)
EAC | Flac(Image) + Cue + Log & MP3 CBR 320Kbps
Nippon Phonogram, PHCR 18709 | Japan | ~ 258 or 105 Mb | Scans(600dpi, jpg) -> 62 Mb
Blues Rock / Classic Rock

"Although Free made excellent studio records, Free "Live" is perhaps the best way to experience the band in all its glory. Led by singer-guitarist Paul Rodgers and lead guitarist Paul Kosoff, the band swings through nine songs with power, clarity, and a dose of funk..."


Tracklist:

01. All Right Now 06:24
02. I'm A Mover 03:39
03. Be My Friend 06:03
04. Fire And Water 03:56
05. Ride On Pony 04:29
06. Mr. Big (Fraser, Kirke, Kossoff, Rodgers) 06:11
07. The Hunter (Cropper, Dunn, Jackson, Jones, Wells) 05:32
08. Get Where I Belong 04:21

All tracks written by Fraser & Rodgers unless otherwise stated.

Musicians:

Paul Rodgers - vocals
Paul Kossoff - guitar
Andy Fraser - bass guitar
Simon Kirke - drums


Exact Audio Copy V1.0 beta 1 from 15. November 2010

EAC extraction logfile from 30. June 2015, 16:11

Free / Free Live!

Used drive : MATSHITADVD-RAM UJ8A0AS Adapter: 0 ID: 1

Read mode : Secure
Utilize accurate stream : Yes
Defeat audio cache : Yes
Make use of C2 pointers : No

Read offset correction

: 102
Overread into Lead-In and Lead-Out : No
Fill up missing offset samples with silence : Yes
Delete leading and trailing silent blocks : No
Null samples used in CRC calculations : Yes
Used interface
: Native Win32 interface for Win NT & 2000

Used output format : Internal WAV Routines
Sample format : 44.100 Hz; 16 Bit; Stereo

TOC of the extracted CD Track | Start | Length | Start sector | End sector
--1 | 0:00.37 | 6:24.20 | 37 | 28856 2 | 6:24.57 | 3:39.38 | 28857 | 45319 3 | 10:04.20 | 6:03.22 | 45320 | 72566 4 | 16:07.42 | 3:56.48 | 72567 | 90314 5 | 20:04.15 | 4:29.50 | 90315 | 110539 6 | 24:33.65 | 6:11.52 | 110540 | 138416 7 | 30:45.42 | 5:32.25 | 138417 | 163341 8 | 36:17.67 | 4:21.45 | 163342 | 182961

Range status and errors

Selected range Filename C:\Users\Alex\Music\Free - Free Live!.wav Peak level 100.0 %
Extraction speed 0.1 X
Range quality 100.0 %
Test CRC AF5A7FAC
Copy CRC AF5A7FAC
Copy OK

No errors occurred


AccurateRip summary

Track 1 accurately ripped (confidence 2) [2E7C43CE]
Track 2 accurately ripped (confidence 2) [9CC94E35]
Track 3 accurately ripped (confidence 2) [C705DCD9]
Track 4 accurately ripped (confidence 2) [D8C5A6D7]
Track 5 accurately ripped (confidence 2) [8D35398D]
Track 6 accurately ripped (confidence 2) [1F035E43]
Track 7 accurately ripped (confidence 2) [A57DC17D]
Track 8 accurately ripped (confidence 2) [4481F178]

All tracks accurately ripped

End of status report

==== Log checksum B6EF0321E161931E15034A56E2B7C3D501CBC6AC72251F9AD8E78A43F21B6A0A ====

foobar2000 1.2.9 / Dynamic Range Meter 1.1.1
log date: 2015-07-05 22:49:44

Analyzed: Free / Free Live!

DR Peak RMS Duration Track

DR11 -0.76 dB -13.54 dB 6:24 01-All Right Now
DR11 0.00 dB -14.41 dB 3:40 02-I'm A Mover
DR12 0.00 dB -15.69 dB 6:03 03-Be My Friend
DR11 -0.39 dB -14.16 dB 3:57 04-Fire And Water
DR12 0.00 dB -14.05 dB 4:30 05-Ride On Pony
DR11 -0.54 dB -15.29 dB 6:12 06-Mr. Big
DR11 -0.32 dB -13.42 dB 5:32 07-The Hunter
DR11 -0.50 dB -14.88 dB 4:22 08-Get Where I Belong

Number of tracks: 8
Official DR value: DR11

Samplerate: 44100 Hz
Channels: 2
Bits per sample: 16
Bitrate: 860 kbps
Codec: FLAC

[CUETools log; Date: 01.07.2015 14:41:56; Version: 2.1.4]
Pregap length 00:00:37.
[CTDB TOCID: Us68Pnb9KL4Ug2oL1WpXbqnfPiw-] found.
Track | CTDB Status
1 | (5/5) Accurately ripped
2 | (5/5) Accurately ripped
3 | (1/5) Accurately ripped
4 | (1/5) Accurately ripped
5 | (5/5) Accurately ripped
6 | (5/5) Accurately ripped
7 | (5/5) Accurately ripped
8 | (5/5) Accurately ripped
[AccurateRip ID: 000cb365-00543ed3-78098708] found.
Track [ CRC | V2 ] Status
01 [2e7c43ce|7f59fe80] (0+2/7) Accurately ripped
02 [9cc94e35|3d2417f3] (0+2/9) Accurately ripped
03 [c705dcd9|96b200e4] (0+2/9) Accurately ripped
04 [d8c5a6d7|4c682a6c] (0+2/9) Accurately ripped
05 [8d35398d|d10016c8] (0+2/9) Accurately ripped
06 [1f035e43|81c54638] (0+2/7) Accurately ripped
07 [a57dc17d|782931dc] (0+2/9) Accurately ripped
08 [4481f178|ecaca6bd] (0+2/9) Accurately ripped
Offsetted by -2653:
01 [db182e1d] (2/7) Accurately ripped
02 [8179a8aa] (2/9) Accurately ripped
03 [1c8b5a67] (2/9) Accurately ripped
04 [98b3eac0] (2/9) Accurately ripped
05 [e6f08c05] (2/9) Accurately ripped
06 [c96ad5ae] (2/7) Accurately ripped
07 [080c751a] (2/9) Accurately ripped
08 [1fc7c2c8] (2/9) Accurately ripped
Offsetted by 156:
01 [0b56dc74] (0/7) No match (V2 was not tested)
02 [2538a732] (2/9) Accurately ripped
03 [03ab9e21] (0/9) No match (V2 was not tested)
04 [f83b3ddd] (0/9) No match
05 [08fdf20c] (2/9) Accurately ripped
06 [e38cfb98] (0/7) No match (V2 was not tested)
07 [8ae2e368] (2/9) Accurately ripped
08 [328ce048] (2/9) Accurately ripped

Track Peak [ CRC32 ] [W/O NULL] [ LOG ]
-- 100,0 [AF5A7FAC] [C86A970E] CRC32
01 91,6 [E0E8B2E1] [FA76E7EB]
02 100,0 [946FDC4A] [8D5770C3]
03 100,0 [0B55A503] [C30B599C]
04 95,5 [E16F4F96] [EC82CD24]
05 100,0 [700B58F5] [105388ED]
06 94,0 [E7131610] [7C02CBEF]
07 96,3 [211D0492] [C11BB37D]
08 94,4 [A584B692] [C56FBC66]

Free - Free Live! (1971) [1992, Nippon Phonogram, PHCR 18709]

DOWNLOAD LINKS:
Buy Premium To Support Me & Get Resumable Support & Max Speed


Links are Interchangeable - No Password - Single Extraction
Direct Download

Tags: Nippon, Phonogram

Comments
Name:*
E-Mail:*
Add Comments:
Enter Code: *