Download Now

Ustad Sultan Khan - Raga Marwa/Raga Bhairavi (1995)

Ustad Sultan Khan - Raga Marwa/Raga Bhairavi (1995)
EAC Rip | FLAC with CUE and log | scans | 336mb
MP3 CBR 320kbps | RAR | 170mb
Genre: Indian classical, world

Raga Marwa/Raga Bhairavi is a 1995 CD by Ustad Sultan Khan. The CD is simply listed under his instrument, Sarangi, but since he released a few other discs on the India Archive Series label with the same name, I am using the name of the two ragas featured. "Raga Marwa" is divided into four indexed tracks while "Raga Bhairavi" is heard as one track. Khan is joiend by Anuradha Pal on tabla and Mrs. Paro Shah on tanpura.
Ustad Sultan Khan - Raga Marwa/Raga Bhairavi (1995)

Raga Marwa
1. Alap & Jor (26:25)
2. Vilambit Gat in Tintal (13:34)
3. Madhya Gat in Tintal (11:15)
4. Drut Gat in Ektal (6:17)
Raga Bhairavi
5. Dhun in Dadra Tal (12:52)

Ustad Sultan Khan - Raga Marwa/Raga Bhairavi (1995)



EAC extraction logfile from 22. May 2007, 15:35 for CD
Ustad Sultan Khan / Raga Marwa/Raga Bhairavi

Used drive : LITE-ON DVDRW SOHW-1633S Adapter: 0 ID: 0
Read mode : Secure with NO C2, accurate stream, disable cache
Read offset correction : 12
Overread into Lead-In and Lead-Out : No

Used output format : Internal WAV Routines 44.100 Hz; 16 Bit; Stereo

Other options :
Fill up missing offset samples with silence : Yes
Delete leading and trailing silent blocks : No
Installed external ASPI interface

Track 1
Filename D:\FLAC\Ustad Sultan Khan - Raga Marwa, Raga Bhairavi (1995) [FLAC]\01 - Raga Marwa - Alap & Jor.wav Pre-gap length 0:00:02.00 Peak level 83.9 %
Track quality 100.0 %
Test CRC 1414778D
Copy CRC 1414778D
Copy OK

Track 2
Filename D:\FLAC\Ustad Sultan Khan - Raga Marwa, Raga Bhairavi (1995) [FLAC]\02 - Raga Marwa - Vilambit Gat in Tintal.wav Peak level 88.8 %
Track quality 100.0 %
Test CRC 98FFDEF2
Copy CRC 98FFDEF2
Copy OK

Track 3
Filename D:\FLAC\Ustad Sultan Khan - Raga Marwa, Raga Bhairavi (1995) [FLAC]\03 - Raga Marwa - Madhya Gat in Tintal.wav Peak level 93.1 %
Track quality 100.0 %
Test CRC 9017454B
Copy CRC 9017454B
Copy OK

Track 4
Filename D:\FLAC\Ustad Sultan Khan - Raga Marwa, Raga Bhairavi (1995) [FLAC]\04 - Raga Marwa - Drut Gat in Ektal.wav Peak level 94.2 %
Track quality 100.0 %
Test CRC EEECA2DD
Copy CRC EEECA2DD
Copy OK

Track 5
Filename D:\FLAC\Ustad Sultan Khan - Raga Marwa, Raga Bhairavi (1995) [FLAC]\05 - Raga Bhairavi - Dhun in Dadra Tal.wav Pre-gap length 0:00:01.73 Peak level 96.2 %
Track quality 99.9 %
Test CRC 57F5E220
Copy CRC 57F5E220
Copy OK

No errors occured

End of status report
DOWNLOAD LINKS:
Buy Premium To Support Me & Get Resumable Support & Max Speed


Links are Interchangeable - No Password - Single Extraction
Direct Download

Tags: Sultan, Bhairavi

Comments
Name:*
E-Mail:*
Add Comments:
Enter Code: *