Download Now


Noise By Numbers - Without Boundaries: The NBN Collection (2008-2015) UPGRADED & COMBINED
Noise By Numbers - Without Boundaries: The NBN Collection (2008-2015)
6 Releases | FLAC+CUE+LOG or MP3 CBR 320 Kbps | Complete Scanwork | 951 or 342 MB
Includes both full-length albums, the last EP, and 3 seven-inches singles plus a compilation track

Noise By Numbers hails from Chicago, IL and features veterans of the Chicago music scene including Dan "Vapid" Schafer (formerly of Screeching Weasel / Riverdales / Mopes / Methadones) and Jeff Dean (The Bomb / All Eyes West), Rick Uncapher (Textbook), and Jimmy Lucido (Nightmare Air). The band finds its influence from classic punk/alternative bands like Hüsker Dü, Naked Raygun, Dinosaur Jr., Sugar, and The Replacements, yet maintain a unique sound that never stays in one place for too long. They were named as one of the "100 Bands You Need to Know About" by Alternative Press in the March 2012 issue.


Noise By Numbers - Without Boundaries: The NBN Collection (2008-2015) UPGRADED & COMBINED
Noise By Numbers - Yeah, Whatever... (2009)
FLAC+CUE+LOG or MP3 CBR 320 | 29:29 min | 265 or 111 MB

This is the debut release for this Chicago four piece that finds it's influence from 80's rock music and early 90's punk. Bands like Hüsker Du, Naked Raygun, Seam, and yeah -- think old Alkaline Trio meets some east bay -- you get the idea...

"Dan Schafer's song writing has grown over the years and it's evident with this new project. You will hear all aspects of Dan's musical life from classic Danny Vapid (Sludgeworth) to the Daniel Schafer we know today (Methadones)."

"Noise By Numbers is a alternative/punk juggernaut from right here in Chicago with their debut Asian Man Records release "yeah, whatever..."! It just goes to show that with this All-Star cast of musicians (Dan Schafer of the Methadones, Screeching Weasel, and the Riverdales on lead vocals, Neil Hennessy from the Lawrence Arms on Drums for this recording, Jeff Dean of The Bomb on guitar, and Rick Uncapher of Textbook & Woolworthy fame on bass) you just can't go wrong. "yeah, whatever..." is the album I have been waiting a long time for... from the first track "17 on The Wayside" touching on the way things used to be... even mention to my old stopping grounds here in Chicago at Punkin Donuts... to another stand out track of "Paris In September" will have you hoppin around like a crack head on fire... to the tune "Waiting For The Train" once again talking about Chicago... and I felt it sum up my life now as I am on the Blue Line from Logan Square and how Wicker Park has become Yuppified Douchebags of Lincoln Park on Trust Funds Part 2... oops, I meant gentrified.... to the closing track of "Northern Lights" yet another song you can put on a Mix Tape for your special lady friend. So, if you are looking for some good music to pump into your skull while taking the Blue line downtown to get your ass moving from day to day, or even music to blast at your house when you want to bounce around the room to annoy your old ass neighbors the floor below... this is the one you want to pick up! Nothing too crazy here... just kick ass real Pop-Punk!

~ Review by JohnB, onekindradio.com
"


Tracklist:

01. 17 On The Wayside
02. Just A Reminder
03. Paris In September
04. A Single Bullet
05. Without Boundaries
06. Waiting For The Train
07. Cold Embrace
08. Somewhere Somewhere
09. So Very Clever
10. Northern Lights

all lyrics written by Dan Schafer / music by Schafer & Jeff Dean

Exact Audio Copy V0.99 prebeta 5 from 4. May 2009

EAC extraction logfile from 15. November 2009, 0:16

Noise By Numbers / Yeah, Whatever...

Used drive : PIONEER DVD-RW DVR-116D Adapter: 1 ID: 0

Read mode : Secure
Utilize accurate stream : Yes
Defeat audio cache : Yes
Make use of C2 pointers : No

Read offset correction

: 96
Overread into Lead-In and Lead-Out : No
Fill up missing offset samples with silence : Yes
Delete leading and trailing silent blocks : No
Null samples used in CRC calculations : Yes
Used interface
: Installed external ASPI interface

Used output format : Internal WAV Routines
Sample format : 44.100 Hz; 16 Bit; Stereo

TOC of the extracted CD Track | Start | Length | Start sector | End sector
1 | 0:00.00 | 2:17.49 | 0 | 10323 2 | 2:17.49 | 2:52.47 | 10324 | 23270 3 | 5:10.21 | 2:38.60 | 23271 | 35180 4 | 7:49.06 | 3:21.36 | 35181 | 50291 5 | 11:10.42 | 2:30.27 | 50292 | 61568 6 | 13:40.69 | 2:59.55 | 61569 | 75048 7 | 16:40.49 | 3:10.58 | 75049 | 89356 8 | 19:51.32 | 3:40.62 | 89357 | 105918 9 | 23:32.19 | 2:36.29 | 105919 | 117647
10 | 26:08.48 | 3:20.28 | 117648 | 132675

Range status and errors

Selected range Filename F:\_AvaxHome__Rehabilly\Noise By Numbers - Yeah, Whatever... (2009)\Noise By Numbers - Yeah, Whatever (AM-188).wav Peak level 97.7 %
Range quality 100.0 %
Test CRC 9B9ED975
Copy CRC 9B9ED975
Copy OK

No errors occurred


AccurateRip summary

Track 1 not present in database
Track 2 not present in database
Track 3 not present in database
Track 4 not present in database
Track 5 not present in database
Track 6 not present in database
Track 7 not present in database
Track 8 not present in database
Track 9 not present in database
Track 10 not present in database

None of the tracks are present in the AccurateRip database

End of status report

Recorded & Mixed by Matt Allison at Atlas Studio in May/June 2009
Mastered by Collin Jordan.

* Dan Schafer - vocals, guitar
* Jeff Dean - guitar
* Rick Uncapher - bass
* Neil Hennessy - drums

Released: November 10, 2009
Label: Asian Man Records
Catalog No.: AM-188CD


Noise By Numbers - Without Boundaries: The NBN Collection (2008-2015) UPGRADED & COMBINED
Noise By Numbers - Over Leavitt (2011)
FLAC+CUE+LOG or MP3 CBR 320 | 39:26 min | 402 or 128 MB

The second sophomore release from this Chicago four-piece, Over Leavitt is 11 tracks of 90's influence punk rock and 80's rock music that has drawn comparisons to bands like Hüsker Du and The Replacements. Filled to the brim with melodic hooks, catchy sing-alongs, and a huge rock sound, Over Leavitt is a record that wouldn't be out of place in a dirty basement somewhere in Chicago or your favorite modern alternative rock radio station over the world.

"Since their last album, "Yeah, Whatever..." (2009) on Asian Man Records, it sounds like the band has ironed out the kinks and are working on all cylinders kicking out one of the best Indie Punk albums I've heard in a while. From start to finish "Over Leavitt" is chalk full of killer guitar work, vocal harmonies, catchy hooks, and will have you bouncing around the house singing along to every track.

~ Review from One Kind Radio

Over Leavitt is permeated by a wistful malaise from start to finish, though their punk roots have been tamed slightly. Instead, "I Don't Think So" and the title track almost sound like a brasher version of very early R.E.M., managing to be both melodic and discordant at the same time. Elsewhere, "Disappointed" is a soaring lo-fi punk anthem, while "Radiate" offers a slower, more contemplative side to the band - yet like the rest of the album, still brims with fierce, vital intensity.

~ Review from Alternative press
"


Tracklist:

01. A Song For Emily
02. Lost My Way
03. Swarm Of Flies
04. Sara's Reaching For The Sun
05. I Don't Think So
06. Radiate
07. Satellite Number Eight
08. Yeah, Whatever
09. Yes, You
10. Disappointed
11. Over Leavitt

all songs written by Dan Schafer and Jeff Dean

Exact Audio Copy V1.0 beta 1 from 15. November 2010

EAC extraction logfile from 4. November 2011, 12:17

Noise By Numbers / Over Leavitt

Used drive : PLEXTOR DVDR PX-716A Adapter: 1 ID: 0

Read mode : Secure
Utilize accurate stream : Yes
Defeat audio cache : Yes
Make use of C2 pointers : No

Read offset correction

: 30
Overread into Lead-In and Lead-Out : No
Fill up missing offset samples with silence : Yes
Delete leading and trailing silent blocks : No
Null samples used in CRC calculations : Yes
Used interface
: Installed external ASPI interface

Used output format : Internal WAV Routines
Sample format : 44.100 Hz; 16 Bit; Stereo

TOC of the extracted CD Track | Start | Length | Start sector | End sector
1 | 0:00.00 | 3:40.05 | 0 | 16504 2 | 3:40.05 | 2:47.57 | 16505 | 29086 3 | 6:27.62 | 3:37.43 | 29087 | 45404 4 | 10:05.30 | 4:21.05 | 45405 | 64984 5 | 14:26.35 | 3:23.42 | 64985 | 80251 6 | 17:50.02 | 4:18.57 | 80252 | 99658 7 | 22:08.59 | 2:36.18 | 99659 | 111376 8 | 24:45.02 | 2:50.16 | 111377 | 124142 9 | 27:35.18 | 4:13.31 | 124143 | 143148
10 | 31:48.49 | 3:41.03 | 143149 | 159726
11 | 35:29.52 | 3:56.49 | 159727 | 177475

Range status and errors

Selected range Filename F:\_AvaxHome__Rehabilly\Noise By Numbers - Over Leavitt (2011)\Noise By Numbers - Over Leavitt (JST-070-2).wav Peak level 99.7 %
Extraction speed 0.7 X
Range quality 100.0 %
Test CRC CD43EF0E
Copy CRC CD43EF0E
Copy OK

No errors occurred


AccurateRip summary

Track 1 not present in database
Track 2 not present in database
Track 3 not present in database
Track 4 not present in database
Track 5 not present in database
Track 6 not present in database
Track 7 not present in database
Track 8 not present in database
Track 9 not present in database
Track 10 not present in database
Track 11 not present in database

None of the tracks are present in the AccurateRip database

End of status report

==== Log checksum B5B574D8BA9A5E6256C2DF07FA7671F3796D3269679BE68AAB554A9290D23D88 ====

Produced by Jon Drew and Noise By Numbers
Recorded by Jon Drew in June-July 2010 at Million Yen, Chicago, IL.
Mixed & Mastered in August 2010 by Jon Drew at Alterations, Toronto.

* Dan Schafer - vocals, guitar
* Jeff Dean - guitar, backing vocals
* Rick Uncapher - bass
* Jimmy Lucido - drums, percussion, piano on "7"
+ Elizabeth Elmore - backing vocals on "7 & 9"

Released: August 2, 2011
Label: Jump Start Records
Catalog No.: JST 70-2


Noise By Numbers - Without Boundaries: The NBN Collection (2008-2015) UPGRADED & COMBINED
Noise By Numbers - The EP Collection (2009-2012)
FLAC(tracks), No CUE, No Log or MP3 CBR 320 | 20:16 min | 284 or 102 MB

"The collection of the 7" vinyl EPs, released between 2009-2012 on various labels."


PACKAGE INCLUDES:

Art Of The Underground Singles Series #43 (2009)

01. So Quickly
02. Under The Milky Way

"1" written by Dan Schafer and Jeff Dean
"2" by by Steve Kilbey and Karin Jansson. Originally performed by The Church


Not available.
This is officially downloaded digital music files.

Recorded and mixed by Matt Allison at Atlas in May/June 2009
Mastered by Collin Jordan.

* Dan Schafer - vocals, guitar, backing vocals
* Jeff Dean - guitar
* Rick Uncapher - bass
* Neil Hennessy - drums, backing vocals

Released on August 2009.

Split with Cheap Girls - Under The Influence #15 (2011)

01. Between Planets [Jesus and Mary Chain cover]

Not available.
This is officially downloaded digital music files.

Released on August 16, 2011

Split with The Magnificent (2011)

01. Southgate House
02. Lost Luggage

all songs by Dan Schafer and Jeff Dean

Not available.
This is officially downloaded digital music files.

Produced by Noise By Numbers
Recorded and mixed by Jeff Dean at Million Yen, Chicago in December 2010.

* Dan Schafer - vocals, guitar
* Jeff Dean - guitar, backing vocals
* Rick Uncapher - bass
* Jimmy Lucido - drums

Released on November 15, 2011

2 Sugar Sampler, Volume 3 (Jump Start Records' Digital Sampler)

24. Rudderless [Lemonheads cover]

Not available.
This is officially downloaded digital music files.

Released on December 25, 2011


Noise By Numbers - Without Boundaries: The NBN Collection (2008-2015) UPGRADED & COMBINED
Noise By Numbers - High On Drama (2015) [EP]
FLAC+CUE or MP3 CBR 320 | 17:24 min | 284 or 102 MB

"Single sided 12" vinyl EP. High On Drama could be the swan song we've all been looking for or it could be the spring board that breathes new life into Noise By Numbers. The EP is made up of six tracks that pick up where the band left off with Over Leavitt with the added bonus of a cover of The Lemonheads' "Rudderless". The five new tunes are drenched in odes to bands like Hüsker Dü, The Replacements, and Sugar, and "Rudderless" shows more than enough respect for the original. Chicago is known for its legendary bands and there is no doubt in our minds that Noise By Numbers has earned a spot next to all of them even if you haven't heard of them."


Tracklist:

01. High On Drama
02. Are You Still My Enemy?
03. Southgate House
04. Town Of Hamburg
05. Rudderless [Lemonheads cover]
06. Make Up Your Heart

Not available.
This is officially downloaded digital music files.
Properly re-packaged to FLAC-Image.

Recorded by Jeff Dean and Jon Drew at Million Yen Studios
Mixed & Mastered by Jon Drew.

* Dan Schafer - vocals, guitar
* Jeff Dean - guitar, backing vocals
* Rick Uncapher - bass
* Jimmy Lucido - drums

Released Digitally: January 13, 2015
Released on Vinyl: April 8, 2015
Label: Jump Start Records
Catalog No.: JST-094
DOWNLOAD LINKS:
Buy Premium To Support Me & Get Resumable Support & Max Speed


Links are Interchangeable - No Password - Single Extraction
Direct Download

Tags: Numbers, Without, Boundaries, Collection, UPGRADED, COMBINED

Comments
Name:*
E-Mail:*
Add Comments:
Enter Code: *