Download Now


John Zorn - John Zorn's Olympiad Vol. 1 - Dither Plays Zorn (2015) {Tzadik TZ 8327}
John Zorn - John Zorn's Olympiad Vol. 1 - Dither Plays Zorn (2015) {Tzadik TZ 8327}
EAC rip (secure mode) | FLAC (tracks)+CUE+LOG -> 324 Mb | MP3 @320 -> 186 Mb
Full Artwork @ 600 dpi (png) -> 249 Mb | 5% repair rar
© 2015 Tzadik | TZ 8327 | Tzadik Archival Series
Jazz / Avant-Garde / Experimental

"In the late '70s and early '80s Zorn presented yearly retrospectives of his game pieces at various Downtown venues. He called these events his Olympiads. This long awaited CD presents three of his classic pre-Cobra game pieces in multiple versions by the fabulous Brooklyn-based guitar quartet Dither. Here you will find the building blocks of Zorn's trademark musical language-virtuosic extended techniques, surprising contrasts, fast group interaction and razor sharp changes. Featuring the first recording of Zorn's legendary compositions Fencing and Curling, these fabulous realizations will keep you on the edge of your seat from first note to last!"

John Zorn - John Zorn's Olympiad Vol. 1 - Dither Plays Zorn (2015) {Tzadik TZ 8327}


Personnel:
Gyan Riley: Electric Guitar, Acoustic Guitar, Banjo
Taylor Levine: Electric Guitar, Acoustic Guitar
Joshua Lopes: Electric Guitar, Acoustic Guitar, Bajo Sexto, Zhong Ruan
James Moore: Electric Guitar, Acoustic Guitar, Banjo, Mandolin

John Zorn - John Zorn's Olympiad Vol. 1 - Dither Plays Zorn (2015) {Tzadik TZ 8327}


tracklist:
01 - Curling (electric short)
02 - Hockey (acoustic dry)
03 - Fencing (electric)
04 - Curling (acoustic)
05 - Hockey (electric wet)
06 - Fencing (acoustic)
07 - Hockey (electric dry)
08 - Curling (electric long)

Exact Audio Copy V1.0 beta 4 from 7. December 2014

EAC extraction logfile from 31. May 2015, 14:36

John Zorn / John Zorn's Olympiad Vol. 1 - Dither Plays Zorn

Used drive : ATAPI iHAS124 B Adapter: 1 ID: 0

Read mode : Secure
Utilize accurate stream : Yes
Defeat audio cache : Yes
Make use of C2 pointers : No

Read offset correction

: 6
Overread into Lead-In and Lead-Out : No
Fill up missing offset samples with silence : Yes
Delete leading and trailing silent blocks : No
Null samples used in CRC calculations : Yes
Used interface
: Native Win32 interface for Win NT & 2000
Gap handling
: Appended to previous track

Used output format : User Defined Encoder
Selected bitrate : 1024 kBit/s
Quality : High
Add ID3 tag : No
Command line compressor : C:\Program Files (x86)\FLAC Frontend\tools\flac.exe
Additional command line options : -8 -V -T "ARTIST=%artist%" -T "TITLE=%title%" -T "ALBUM=%albumtitle%" -T "DATE=%year%" -T "TRACKNUMBER=%tracknr%" -T "TOTALTRACKS=%numtracks%" -T "GENRE=%genre%" -T "ALBUMARTIST=%albumartist%" -T "ALBUM ARTIST=%albumartist%" -T "COMMENT=EAC Secure Mode, Test & Copy, AccurateRip, FLAC -8" %source%

TOC of the extracted CD Track | Start | Length | Start sector | End sector
1 | 0:00.00 | 7:31.16 | 0 | 33840 2 | 7:31.16 | 3:59.70 | 33841 | 51835 3 | 11:31.11 | 11:55.30 | 51836 | 105490 4 | 23:26.41 | 13:16.45 | 105491 | 165235 5 | 36:43.11 | 6:35.07 | 165236 | 194867 6 | 43:18.18 | 11:20.53 | 194868 | 245920 7 | 54:38.71 | 4:04.04 | 245921 | 264224 8 | 58:43.00 | 19:22.12 | 264225 | 351386

Track 1 Filename D:\_EAC\John Zorn - John Zorn's Olympiad Vol. 1 - Dither Plays Zorn (2015) [FLAC] {Tzadik TZ 8327}\01 - Curling (electric short).wav Pre-gap length 0:00:02.00 Peak level 99.0 %
Extraction speed 3.8 X
Track quality 99.9 %
Test CRC 8D81C25F
Copy CRC 8D81C25F
Track not present in AccurateRip database
Copy OK

Track 2 Filename D:\_EAC\John Zorn - John Zorn's Olympiad Vol. 1 - Dither Plays Zorn (2015) [FLAC] {Tzadik TZ 8327}\02 - Hockey (acoustic dry).wav Peak level 100.0 %
Extraction speed 4.5 X
Track quality 100.0 %
Test CRC 23E3E639
Copy CRC 23E3E639
Track not present in AccurateRip database
Copy OK

Track 3 Filename D:\_EAC\John Zorn - John Zorn's Olympiad Vol. 1 - Dither Plays Zorn (2015) [FLAC] {Tzadik TZ 8327}\03 - Fencing (electric).wav Peak level 94.9 %
Extraction speed 5.6 X
Track quality 100.0 %
Test CRC 68C75FAC
Copy CRC 68C75FAC
Track not present in AccurateRip database
Copy OK

Track 4 Filename D:\_EAC\John Zorn - John Zorn's Olympiad Vol. 1 - Dither Plays Zorn (2015) [FLAC] {Tzadik TZ 8327}\04 - Curling (acoustic).wav Peak level 100.0 %
Extraction speed 6.5 X
Track quality 100.0 %
Test CRC B012FE5B
Copy CRC B012FE5B
Track not present in AccurateRip database
Copy OK

Track 5 Filename D:\_EAC\John Zorn - John Zorn's Olympiad Vol. 1 - Dither Plays Zorn (2015) [FLAC] {Tzadik TZ 8327}\05 - Hockey (electric wet).wav Peak level 95.0 %
Extraction speed 5.8 X
Track quality 99.9 %
Test CRC E1950DA4
Copy CRC E1950DA4
Track not present in AccurateRip database
Copy OK

Track 6 Filename D:\_EAC\John Zorn - John Zorn's Olympiad Vol. 1 - Dither Plays Zorn (2015) [FLAC] {Tzadik TZ 8327}\06 - Fencing (acoustic).wav Peak level 83.0 %
Extraction speed 7.6 X
Track quality 100.0 %
Test CRC 5A0AD510
Copy CRC 5A0AD510
Track not present in AccurateRip database
Copy OK

Track 7 Filename D:\_EAC\John Zorn - John Zorn's Olympiad Vol. 1 - Dither Plays Zorn (2015) [FLAC] {Tzadik TZ 8327}\07 - Hockey (electric dry).wav Peak level 94.5 %
Extraction speed 7.2 X
Track quality 100.0 %
Test CRC B79C1DEA
Copy CRC B79C1DEA
Track not present in AccurateRip database
Copy OK

Track 8 Filename D:\_EAC\John Zorn - John Zorn's Olympiad Vol. 1 - Dither Plays Zorn (2015) [FLAC] {Tzadik TZ 8327}\08 - Curling (electric long).wav Peak level 100.0 %
Extraction speed 8.7 X
Track quality 100.0 %
Test CRC 61424C15
Copy CRC 61424C15
Track not present in AccurateRip database
Copy OK

None of the tracks are present in the AccurateRip database

No errors occurred

End of status report

==== Log checksum 53C0B13B9BD62F082C05C17CFD50714778706328BCA638413ED20537772BC0FE ====

John Zorn - John Zorn's Olympiad Vol. 1 - Dither Plays Zorn (2015) {Tzadik TZ 8327}

John Zorn - John Zorn's Olympiad Vol. 1 - Dither Plays Zorn (2015) {Tzadik TZ 8327}

DOWNLOAD LINKS:
Buy Premium To Support Me & Get Resumable Support & Max Speed


Links are Interchangeable - No Password - Single Extraction
Direct Download

Tags: Olympiad, Dither, Tzadik

Comments
Name:*
E-Mail:*
Add Comments:
Enter Code: *