Download Now


Ferenc Aszodi - Trompeten Impressionen (1980, CD reissue 1985, Intercord # INT 830.044)
Ferenc Aszodi - Trompeten Impressionen
EAC+LOG+CUE | FLAC: 266 MB | Full Artwork: 28 MB | 5% Recovery Info
Label/Cat#: Intercord # INT 830.044 | Country/Year: Germany 1985, 1980
Genre: Pop | Style: Easy Listening, Instrumental

""...1956 kam Ferenc Aszodi nach Deutschland: Schon zwei Monate nach seiner Ankunft wurde er die erste Trompete des Max Greger Tanzorchesters, bei dem er 13 Jahre blieb. 1970 wurde Ferenc Aszodi erste Trompete des Südwestfunk-Orchesters in Baden-Baden unter der Leitung von Rolf Hans Müller. Zu jener Zeit wurde Ferenc Aszodi auch als Fachmann für Folklore und traditionelle Blechblasmusik bekannt, was zu jahrzehntelangen Engagements bei den berühmten Original Schwarzwälder Musikanten als erstes Flügelhorn und bei den legendären Original Egerländern von Ernst Mosch als erste Trompete führte...""




Ferenc Aszodi - Trompeten Impressionen (1980, CD reissue 1985, Intercord # INT 830.044)



Exact Audio Copy V1.0 beta 3 from 29. August 2011

EAC extraction logfile from 13. September 2013, 8:32

Ferenc Aszodi / Trompeten Impressionen

Used drive : PIONEER BD-RW BDR-206 Adapter: 0 ID: 2

Read mode : Secure
Utilize accurate stream : Yes
Defeat audio cache : Yes
Make use of C2 pointers : No

Read offset correction

: 667
Overread into Lead-In and Lead-Out : No
Fill up missing offset samples with silence : Yes
Delete leading and trailing silent blocks : No
Null samples used in CRC calculations : Yes
Used interface
: Native Win32 interface for Win NT & 2000

Used output format : User Defined Encoder
Selected bitrate : 1024 kBit/s
Quality : High
Add ID3 tag : Yes
Command line compressor : C:\Program Files\FLAC\flac.exe
Additional command line options : -5 -T "Artist=%artist%" -T "Title=%title%" -T "Album=%albumtitle%" -T "Date=%year%" -T "Tracknumber=%tracknr%" -T "Genre=%genre%" %source% -o %dest%

TOC of the extracted CD Track | Start | Length | Start sector | End sector
1 | 0:00.33 | 3:25.00 | 33 | 15407 2 | 3:25.33 | 3:17.00 | 15408 | 30182 3 | 6:42.33 | 3:16.50 | 30183 | 44932 4 | 9:59.08 | 3:01.00 | 44933 | 58507 5 | 13:00.08 | 2:20.00 | 58508 | 69007 6 | 15:20.08 | 3:09.50 | 69008 | 83232 7 | 18:29.58 | 2:50.12 | 83233 | 95994 8 | 21:19.70 | 3:03.63 | 95995 | 109782 9 | 24:23.58 | 4:05.25 | 109783 | 128182
10 | 28:29.08 | 2:54.25 | 128183 | 141257
11 | 31:23.33 | 3:27.00 | 141258 | 156782
12 | 34:50.33 | 3:17.50 | 156783 | 171607
13 | 38:08.08 | 2:05.50 | 171608 | 181032
14 | 40:13.58 | 3:06.25 | 181033 | 195007
15 | 43:20.08 | 2:59.00 | 195008 | 208432
16 | 46:19.08 | 2:26.12 | 208433 | 219394

Range status and errors

Selected range Filename F:\=== VINYL RIPS ===\=== EAC===\X FRESH RIP\Ferenc Aszodi - Trompeten Impressionen.wav Peak level 85.4 %
Extraction speed 1.6 X
Range quality 99.9 %
Test CRC 08F00562
Copy CRC 08F00562
Copy OK

No errors occurred


AccurateRip summary

Track 1 not present in database
Track 2 not present in database
Track 3 not present in database
Track 4 not present in database
Track 5 not present in database
Track 6 not present in database
Track 7 not present in database
Track 8 not present in database
Track 9 not present in database
Track 10 not present in database
Track 11 not present in database
Track 12 not present in database
Track 13 not present in database
Track 14 not present in database
Track 15 not present in database
Track 16 not present in database

None of the tracks are present in the AccurateRip database

End of status report

---- CUETools DB Plugin V2.1.3

[CTDB TOCID: lrT.cis8HLsKVl7FnPw6.AlyH7c-] disk not present in database, Submit result: discs with pregaps not supported in this protocol version

==== Log checksum C2772F3DEB71E4995712EB0F7F62CEB1586C286CBBEF274B5F40E20010B708FE ====

foobar2000 1.1.14a / Dynamic Range Meter 1.1.1
log date: 2013-09-16 09:09:57

------
Analyzed: Ferenc Aszodi / Trompeten Impressionen
------

DR Peak RMS Duration Track
------
DR11 -1.74 dB -15.61 dB 3:25 01-Love Story
DR12 -1.78 dB -16.79 dB 3:17 02-Trumpet Bolero
DR11 -1.78 dB -15.78 dB 3:17 03-Spanish Eyes
DR12 -1.91 dB -15.78 dB 3:01 04-Mitternachtsblues
DR11 -2.99 dB -15.34 dB 2:20 05-Piroschka
DR11 -1.97 dB -16.06 dB 3:10 06-Schiwago-Melodie
DR12 -1.97 dB -16.46 dB 2:50 07-Il Silenzio
DR10 -3.00 dB -15.47 dB 3:04 08-Schlafe, mein Prinzchen, schlaf' ein
DR10 -2.48 dB -15.35 dB 4:05 09-O mein Papa
DR12 -1.37 dB -15.58 dB 2:54 10-Dolce Maria
DR12 -1.67 dB -15.63 dB 3:27 11-Strangers in the Night
DR12 -1.95 dB -16.80 dB 3:18 12-Dolannes Melodie
DR11 -2.83 dB -16.94 dB 2:06 13-La Paloma
DR10 -1.79 dB -15.62 dB 3:06 14-Nur ein Madchen
DR11 -2.52 dB -16.34 dB 2:59 15-Greensleeves
DR11 -2.02 dB -14.98 dB 2:26 16-Trumpet Voluntary
------

Number of tracks: 16
Official DR value: DR11

Samplerate: 44100 Hz
Channels: 2
Bits per sample: 16
Bitrate: 763 kbps
Codec: FLAC

CD Info:

Ferenc Aszodi - Trompeten Impressionen / Trumpet Impressions

Label: Intercord
Catalog#: INT 830.044
Format: CD, Album, Reissue
Country: Germany
Released: 1985, 1980
Genre: Pop
Style: Easy Listening, Instrumental

Tracklist:

1 Love Story 3:25
2 Trumpet Bolero 3:17
3 Spanish Eyes 3:17
4 Mitternachtsblues 3:01
5 Piroschka 2:20
6 Schiwago-Melodie 3:10
7 Il Silenzio 2:50
8 Schlafe, mein Prinzchen, schlaf' ein 3:04
9 O mein Papa 4:05
10 Dolce Maria 2:54
11 Strangers in the Night 3:27
12 Dolannes Melodie 3:18
13 La Paloma 2:06
14 Nur ein Madchen 3:06
15 Greensleeves 2:59
16 Trumpet Voluntary 2:26

"Ferenc Aszodi wurde am 6. August 1929 in Budapest (Ungarn) geboren, wo er schon mit 11 Jahren begann, Trompete zu spielen.

Nach dem Krieg studierte er Musik an der Franz-Liszt-Musikakademie in Budapest mit Schwerpunkt Trompete. Zur selben Zeit nutzte er jede sich bietende Gelegenheit, Jazz zu spielen, und war schon nach kurzer Zeit in der Lage, seine eigene Band zu gründen.

1956 kam Ferenc Aszodi nach Deutschland: Schon zwei Monate nach seiner Ankunft wurde er die erste Trompete des Max Greger Tanzorchesters, bei dem er 13 Jahre blieb.

1970 wurde Ferenc Aszodi erste Trompete des Südwestfunk-Orchesters in Baden-Baden unter der Leitung von Rolf Hans Müller. Zu jener Zeit wurde Ferenc Aszodi auch als Fachmann für Folklore und traditionelle Blechblasmusik bekannt, was zu jahrzehntelangen Engagements bei den berühmten Original Schwarzwälder Musikanten als erstes Flügelhorn und bei den legendären Original Egerländern von Ernst Mosch als erste Trompete führte.

Ferenc Aszodi starb am 2. Juli 2005 während eines Besuchs bei seinem Sohn in Los Angeles, Kalifornien."



Ferenc Aszodi - Trompeten Impressionen (1980, CD reissue 1985, Intercord # INT 830.044)



DOWNLOAD LINKS:
Buy Premium To Support Me & Get Resumable Support & Max Speed


Links are Interchangeable - No Password - Single Extraction
Direct Download

Tags: Ferenc, Aszodi, Trompeten, Impressionen, reissue, Intercord

Comments
Name:*
E-Mail:*
Add Comments:
Enter Code: *