Download Now


Osie Johnson - The Happy Jazz Of Osie Johnson (1955) {2014 Japanese Bethlehem Album Collection 1000}
Osie Johnson - The Happy Jazz Of Osie Johnson (1955) {2014 Japanese Bethlehem Album Collection 1000}
EAC rip (secure mode) | FLAC (tracks)+CUE+LOG -> 143 Mb | MP3 @320 -> 99 Mb
Full Artwork @ 600 dpi (png) -> 220 Mb | 5% repair rar
© 2014 Solid Records / Bethlehem | CDSOL-6136 | LP BCP-66
Jazz / Bop / Bebop / Drums

"Osie Johnson looks a bit blurry on the cover, but the music on the record is razor-sharp - a great demonstration not only of Johnson's skill on the drums, but also his rare talents as a leader! Osie graced countless top-shelf sessions in the 50s, but only got a rare few chances to work up front - and he does a great job here with a shifting lineup that includes Thad Jones on trumpet, Frank Wess on tenor and flute, Henry Coker on trombone, and Ernie Watkins on alto - all players used in differently-sized groups throughout the length of the set. Most tunes have a nice groove - a bounce that might refer to the "happy" in the title - and Johnson also sings at a few points, with this great raspy R&B style. Titles include "Osmosis", "Cat Walk", "Johnson's Whacks", "The Desert Song", "Osie's Oasis", and "Flute To Boot"."

Osie Johnson - The Happy Jazz Of Osie Johnson (1955) {2014 Japanese Bethlehem Album Collection 1000}


Personnel:
Osie Johnson - Drums, Vocal, Leader
Thad Jones - Trumpet
Frank Wess - Tenor Sax, Flute
Bill Hughes - Trombone
Dick Katz - Piano
Milt Hinton - Bass
Henry Coker - Trombone
Chiefy Salaam - Trumpet
Ernie Wilkins - Alto Sax
Charlie Fowlkes - Baritone sax
Wendell Marshall - Bass
Benny Powell - Trombone
Eddie Jones - Bass

Osie Johnson - The Happy Jazz Of Osie Johnson (1955) {2014 Japanese Bethlehem Album Collection 1000}


tracklist:
01 - Osmosis
02 - Don't Bug Me, Hug Me
03 - Flute To Boot
04 - Cat Walk
05 - Johnson's Whacks
06 - The Desert Song
07 - Blues For The Camels
08 - I Don't Want To Cry Anymore
09 - Osie's Oasis
10 - Jumpin' At The Water Hole
11 - Midnight Mirage

Exact Audio Copy V1.0 beta 4 from 7. December 2014

EAC extraction logfile from 2. May 2015, 14:12

Osie Johnson / The Happy Jazz Of Osie Johnson

Used drive : TSSTcorpCDDVDW SE-208DB Adapter: 1 ID: 1

Read mode : Secure
Utilize accurate stream : Yes
Defeat audio cache : Yes
Make use of C2 pointers : No

Read offset correction

: 6
Overread into Lead-In and Lead-Out : No
Fill up missing offset samples with silence : Yes
Delete leading and trailing silent blocks : No
Null samples used in CRC calculations : Yes
Used interface
: Native Win32 interface for Win NT & 2000
Gap handling
: Appended to previous track

Used output format : User Defined Encoder
Selected bitrate : 1024 kBit/s
Quality : High
Add ID3 tag : No
Command line compressor : C:\Program Files (x86)\FLAC Frontend\tools\flac.exe
Additional command line options : -8 -V -T "ARTIST=%artist%" -T "TITLE=%title%" -T "ALBUM=%albumtitle%" -T "DATE=%year%" -T "TRACKNUMBER=%tracknr%" -T "TOTALTRACKS=%numtracks%" -T "GENRE=%genre%" -T "ALBUMARTIST=%albumartist%" -T "ALBUM ARTIST=%albumartist%" -T "COMMENT=EAC Secure Mode, Test & Copy, AccurateRip, FLAC -8" %source%

TOC of the extracted CD Track | Start | Length | Start sector | End sector
1 | 0:00.00 | 3:41.36 | 0 | 16610 2 | 3:41.36 | 4:00.69 | 16611 | 34679 3 | 7:42.30 | 3:38.37 | 34680 | 51066 4 | 11:20.67 | 6:18.00 | 51067 | 79416 5 | 17:38.67 | 3:55.41 | 79417 | 97082 6 | 21:34.33 | 2:28.55 | 97083 | 108237 7 | 24:03.13 | 3:50.48 | 108238 | 125535 8 | 27:53.61 | 2:39.00 | 125536 | 137460 9 | 30:32.61 | 4:37.50 | 137461 | 158285
10 | 35:10.36 | 4:00.64 | 158286 | 176349
11 | 39:11.25 | 2:55.49 | 176350 | 189523

Track 1 Filename D:\_EAC\Osie Johnson - The Happy Jazz Of Osie Johnson (1955) [FLAC] {2014 Japanese Bethlehem Album Collection 1000}\01 - Osmosis.wav Pre-gap length 0:00:02.00 Peak level 98.2 %
Extraction speed 1.0 X
Track quality 100.0 %
Test CRC 39408AA3
Copy CRC 39408AA3
Track not present in AccurateRip database
Copy OK

Track 2 Filename D:\_EAC\Osie Johnson - The Happy Jazz Of Osie Johnson (1955) [FLAC] {2014 Japanese Bethlehem Album Collection 1000}\02 - Don't Bug Me, Hug Me.wav Peak level 98.2 %
Extraction speed 1.1 X
Track quality 100.0 %
Test CRC C13FFD81
Copy CRC C13FFD81
Track not present in AccurateRip database
Copy OK

Track 3 Filename D:\_EAC\Osie Johnson - The Happy Jazz Of Osie Johnson (1955) [FLAC] {2014 Japanese Bethlehem Album Collection 1000}\03 - Flute To Boot.wav Peak level 98.2 %
Extraction speed 1.1 X
Track quality 100.0 %
Test CRC 05543872
Copy CRC 05543872
Track not present in AccurateRip database
Copy OK

Track 4 Filename D:\_EAC\Osie Johnson - The Happy Jazz Of Osie Johnson (1955) [FLAC] {2014 Japanese Bethlehem Album Collection 1000}\04 - Cat Walk.wav Peak level 98.3 %
Extraction speed 1.3 X
Track quality 100.0 %
Test CRC 61599B13
Copy CRC 61599B13
Track not present in AccurateRip database
Copy OK

Track 5 Filename D:\_EAC\Osie Johnson - The Happy Jazz Of Osie Johnson (1955) [FLAC] {2014 Japanese Bethlehem Album Collection 1000}\05 - Johnson's Whacks.wav Peak level 98.2 %
Extraction speed 1.3 X
Track quality 100.0 %
Test CRC 55066400
Copy CRC 55066400
Track not present in AccurateRip database
Copy OK

Track 6 Filename D:\_EAC\Osie Johnson - The Happy Jazz Of Osie Johnson (1955) [FLAC] {2014 Japanese Bethlehem Album Collection 1000}\06 - The Desert Song.wav Peak level 98.2 %
Extraction speed 1.0 X
Track quality 99.9 %
Test CRC 6942B792
Copy CRC 6942B792
Track not present in AccurateRip database
Copy OK

Track 7 Filename D:\_EAC\Osie Johnson - The Happy Jazz Of Osie Johnson (1955) [FLAC] {2014 Japanese Bethlehem Album Collection 1000}\07 - Blues For The Camels.wav Peak level 98.3 %
Extraction speed 1.4 X
Track quality 100.0 %
Test CRC 068C59E9
Copy CRC 068C59E9
Track not present in AccurateRip database
Copy OK

Track 8 Filename D:\_EAC\Osie Johnson - The Happy Jazz Of Osie Johnson (1955) [FLAC] {2014 Japanese Bethlehem Album Collection 1000}\08 - I Don't Want To Cry Anymore.wav Peak level 98.2 %
Extraction speed 1.1 X
Track quality 99.9 %
Test CRC 8401B652
Copy CRC 8401B652
Track not present in AccurateRip database
Copy OK

Track 9 Filename D:\_EAC\Osie Johnson - The Happy Jazz Of Osie Johnson (1955) [FLAC] {2014 Japanese Bethlehem Album Collection 1000}\09 - Osie's Oasis.wav Peak level 98.2 %
Extraction speed 1.6 X
Track quality 100.0 %
Test CRC 26AB2307
Copy CRC 26AB2307
Track not present in AccurateRip database
Copy OK

Track 10 Filename D:\_EAC\Osie Johnson - The Happy Jazz Of Osie Johnson (1955) [FLAC] {2014 Japanese Bethlehem Album Collection 1000}\10 - Jumpin' At The Water Hole.wav Peak level 98.2 %
Extraction speed 1.6 X
Track quality 100.0 %
Test CRC A3597AC7
Copy CRC A3597AC7
Track not present in AccurateRip database
Copy OK

Track 11 Filename D:\_EAC\Osie Johnson - The Happy Jazz Of Osie Johnson (1955) [FLAC] {2014 Japanese Bethlehem Album Collection 1000}\11 - Midnight Mirage.wav Peak level 98.2 %
Extraction speed 1.3 X
Track quality 99.9 %
Test CRC AED52362
Copy CRC AED52362
Track not present in AccurateRip database
Copy OK

None of the tracks are present in the AccurateRip database

No errors occurred

End of status report

==== Log checksum 8A83BCDD23AFBC12FC0509D88ED6A7C28C8F630C6F31EA7EFCC512D9DB6CD879 ====

Osie Johnson - The Happy Jazz Of Osie Johnson (1955) {2014 Japanese Bethlehem Album Collection 1000}

Osie Johnson - The Happy Jazz Of Osie Johnson (1955) {2014 Japanese Bethlehem Album Collection 1000}

DOWNLOAD LINKS:
Buy Premium To Support Me & Get Resumable Support & Max Speed


Links are Interchangeable - No Password - Single Extraction
Direct Download

Tags: Johnson, Johnson, Japanese, Bethlehem, Collection

Comments
Name:*
E-Mail:*
Add Comments:
Enter Code: *