Download Now

David Wright - 6 Albums (1991-1998)

David Wright - 6 Albums (1991-1998)
EAC Rip | FLAC (tracks+.cue+log) - 2,3 GB | MP3 CBR 320 kbps (LAME 3.93) - 1,08 GB | Covers - 691 MB
Genre: New Age, Electronic, Ambient | RAR 3% Rec. | Label: AD Music

"British electronic/new age musician David Wright was born in 1953. He has released numerous records both solo and with the groups Callisto and Code Indigo that display a wide range of influences - he spent his formative years in the Far East. Working primarily in the electronic realm - he founded his own label, AD Music, in 1989 - Wright peppers his impressionistic compositions with rock, jazz, classical, and worldbeat flavors, resulting in an instrumental smorgasbord of diverse moods and colors that has been favorably compared to Kitaro, Mike Oldfield, and Vangelis."

David Wright - 6 Albums (1991-1998)

David Wright - Marilynmba (1991)
EAC Rip | FLAC (tracks+.cue+log) - 319 MB | MP3 CBR 320 kbps (LAME 3.93) - 169 MB | Covers - 78 MB
Genre: New Age, Electronic, Ambient | RAR 3% Rec. | Label: AD Music (A.D. 4CD)

Tracklist:
01. Confused Encounters
02. Marilynmba (Part 1)
03. Syntasia
04. Walkin' the Sand
05. Colours of the Night
06. Marilynmba (Parts 2-6)

Total time: 01:11:54

Exact Audio Copy V1.0 beta 3 from 29. August 2011

EAC extraction logfile from 20. October 2014, 14:28

David Wright / Marilynmba

Used drive : ASUS DVD-E616A2 Adapter: 2 ID: 0

Read mode : Secure
Utilize accurate stream : Yes
Defeat audio cache : Yes
Make use of C2 pointers : No

Read offset correction

: 6
Overread into Lead-In and Lead-Out : No
Fill up missing offset samples with silence : Yes
Delete leading and trailing silent blocks : No
Null samples used in CRC calculations : Yes
Used interface
: Installed external ASPI interface
Gap handling
: Appended to previous track

Used output format : User Defined Encoder
Selected bitrate : 1024 kBit/s
Quality : High
Add ID3 tag : No
Command line compressor : ..\..\codecs\flac.exe
Additional command line options : -T "comment=Ripped by Synthrex for New-Team.org" -8 -V %source%

TOC of the extracted CD Track | Start | Length | Start sector | End sector
1 | 0:00.00 | 5:29.15 | 0 | 24689 2 | 5:29.15 | 4:03.07 | 24690 | 42921 3 | 9:32.22 | 25:57.13 | 42922 | 159709 4 | 35:29.35 | 7:56.37 | 159710 | 195446 5 | 43:25.72 | 7:45.40 | 195447 | 230361 6 | 51:11.37 | 20:42.38 | 230362 | 323549

Track 1 Filename C:\David Wright - (1991) - Marilynmba\01 - Confused Encounters.wav Pre-gap length 0:00:02.00 Peak level 80.4 %
Extraction speed 1.9 X
Track quality 100.0 %
Test CRC BC39B904
Copy CRC BC39B904
Accurately ripped (confidence 2) [1B04A471] (AR v2)
Copy OK

Track 2 Filename C:\David Wright - (1991) - Marilynmba\02 - Marilynmba Part 1.wav Pre-gap length 0:00:01.00 Peak level 72.1 %
Extraction speed 2.1 X
Track quality 100.0 %
Test CRC D742A027
Copy CRC D742A027
Accurately ripped (confidence 2) [57BFAB5F] (AR v2)
Copy OK

Track 3 Filename C:\David Wright - (1991) - Marilynmba\03 - Syntasia.wav Pre-gap length 0:00:01.00 Peak level 63.7 %
Extraction speed 2.9 X
Track quality 100.0 %
Test CRC D768B74B
Copy CRC D768B74B
Accurately ripped (confidence 2) 252B944 (AR v2)
Copy OK

Track 4 Filename C:\David Wright - (1991) - Marilynmba\04 - Walkin' the Sand.wav Pre-gap length 0:00:01.00 Peak level 74.1 %
Extraction speed 3.3 X
Track quality 100.0 %
Test CRC E903E351
Copy CRC E903E351
Accurately ripped (confidence 2) [D1BD5DE2] (AR v2)
Copy OK

Track 5 Filename C:\David Wright - (1991) - Marilynmba\05 - Colours of the Night.wav Pre-gap length 0:00:02.00 Peak level 37.4 %
Extraction speed 3.5 X
Track quality 100.0 %
Test CRC 783789B0
Copy CRC 783789B0
Accurately ripped (confidence 2) [D04367DB] (AR v2)
Copy OK

Track 6 Filename C:\David Wright - (1991) - Marilynmba\06 - Marilynmba Parts 2-6.wav Pre-gap length 0:00:02.00 Peak level 54.3 %
Extraction speed 4.0 X
Track quality 100.0 %
Test CRC 3DB819F3
Copy CRC 3DB819F3
Accurately ripped (confidence 2) [3FB34F4C] (AR v2)
Copy OK

All tracks accurately ripped

No errors occurred

End of status report

---- CUETools DB Plugin V2.1.3

[CTDB TOCID: BkufbFm3bsdOhmb9taKxBtqoGcQ-] found, Submit result: BkufbFm3bsdOhmb9taKxBtqoGcQ- has been confirmed
[2d33823e] (1/1) Accurately ripped

==== Log checksum E8ADAF0A01329EE0EEB73D6D4E414F5E49E79947EA642B86D30CEB131163C0E1 ====

[CUETools log; Date: 18.04.2015 19:30:53; Version: 2.1.4]
[CTDB TOCID: BkufbFm3bsdOhmb9taKxBtqoGcQ-] found.
Track | CTDB Status
1 | (2/2) Accurately ripped
2 | (2/2) Accurately ripped
3 | (2/2) Accurately ripped
4 | (2/2) Accurately ripped
5 | (2/2) Accurately ripped
6 | (2/2) Accurately ripped
[AccurateRip ID: 000ee729-005306dc-3c10da06] found.
Track [ CRC | V2 ] Status
01 [6dc0785a|1b04a471] (0+4/9) Accurately ripped
02 [711fce53|57bfab5f] (0+4/9) Accurately ripped
03 [ec3cf018|b252b944] (0+4/9) Accurately ripped
04 [3f4e6edf|d1bd5de2] (0+4/9) Accurately ripped
05 [a14bde24|d04367db] (0+4/9) Accurately ripped
06 [db2ae81c|3fb34f4c] (0+4/9) Accurately ripped
Offsetted by 1451:
01 [8b8d17d2] (2/9) Accurately ripped
02 [d28f4411] (2/9) Accurately ripped
03 [d9a95c99] (2/9) Accurately ripped
04 [ae334771] (2/9) Accurately ripped
05 [7241dec9] (2/9) Accurately ripped
06 [d7696be5] (2/9) Accurately ripped

Track Peak [ CRC32 ] [W/O NULL] [ LOG ]
-- 80,4 [5EA87CBF] [8F4C66E0]
01 80,4 C39B904 [A1AE5CCF] CRC32
02 72,1 [D742A027] [7DDDCAC1] CRC32
03 63,7 [D768B74B] [C345FBA3] CRC32
04 74,1 [E903E351] [DB1B9411] CRC32
05 37,4 [783789B0] [7271F6F1] CRC32
06 54,3 [3DB819F3] [A4DB10A0] CRC32

David Wright - 6 Albums (1991-1998)

David Wright - Between Realities (1992)
EAC Rip | FLAC (tracks+.cue+log) - 385 MB | MP3 CBR 320 kbps (LAME 3.93) - 184 MB | Covers - 79 MB
Genre: New Age, Electronic, Ambient | RAR 3% Rec. | Label: AD Music (AD5CD)

Tracklist:
01. Eastern Innersense
02. Between Realities
03. Strange Liaisons
04. Over the Edge
05. Taiga
06. Illusions

Total time: 01:18:20

Exact Audio Copy V1.0 beta 3 from 29. August 2011

EAC extraction logfile from 20. October 2014, 17:19

David Wright / Between Realities

Used drive : ASUS DVD-E616A2 Adapter: 2 ID: 0

Read mode : Secure
Utilize accurate stream : Yes
Defeat audio cache : Yes
Make use of C2 pointers : No

Read offset correction

: 6
Overread into Lead-In and Lead-Out : No
Fill up missing offset samples with silence : Yes
Delete leading and trailing silent blocks : No
Null samples used in CRC calculations : Yes
Used interface
: Installed external ASPI interface
Gap handling
: Appended to previous track

Used output format : User Defined Encoder
Selected bitrate : 1024 kBit/s
Quality : High
Add ID3 tag : No
Command line compressor : ..\..\codecs\flac.exe
Additional command line options : -T "comment=Ripped by Synthrex for New-Team.org" -8 -V %source%

TOC of the extracted CD Track | Start | Length | Start sector | End sector
1 | 0:00.00 | 14:10.20 | 0 | 63769 2 | 14:10.20 | 6:19.65 | 63770 | 92259 3 | 20:30.10 | 12:36.70 | 92260 | 149029 4 | 33:07.05 | 5:04.25 | 149030 | 171854 5 | 38:11.30 | 14:20.45 | 171855 | 236399 6 | 52:32.00 | 25:48.00 | 236400 | 352499

Track 1 Filename C:\David Wright - (1992) - Between Realities\01 - Eastern Innersense.wav Pre-gap length 0:00:02.00 Peak level 100.0 %
Extraction speed 2.1 X
Track quality 99.9 %
Test CRC D0EDC5D0
Copy CRC D0EDC5D0
Accurately ripped (confidence 1) [D5E7A6A3] (AR v2)
Copy OK

Track 2 Filename C:\David Wright - (1992) - Between Realities\02 - Between Realities.wav Pre-gap length 0:00:01.00 Peak level 100.0 %
Extraction speed 2.4 X
Track quality 100.0 %
Test CRC D5D02E1A
Copy CRC D5D02E1A
Accurately ripped (confidence 1) [3D612372] (AR v2)
Copy OK

Track 3 Filename C:\David Wright - (1992) - Between Realities\03 - Strange Liaisons.wav Pre-gap length 0:00:01.50 Peak level 53.0 %
Extraction speed 2.7 X
Track quality 99.9 %
Test CRC 218988F0
Copy CRC 218988F0
Accurately ripped (confidence 1) [4C5BB965] (AR v2)
Copy OK

Track 4 Filename C:\David Wright - (1992) - Between Realities\04 - Over the Edge.wav Pre-gap length 0:00:02.00 Peak level 90.2 %
Extraction speed 2.9 X
Track quality 100.0 %
Test CRC D480F648
Copy CRC D480F648
Accurately ripped (confidence 1) [7E1E0272] (AR v2)
Copy OK

Track 5 Filename C:\David Wright - (1992) - Between Realities\05 - Taiga.wav Pre-gap length 0:00:03.00 Peak level 86.8 %
Extraction speed 3.4 X
Track quality 100.0 %
Test CRC 4008BE1F
Copy CRC 4008BE1F
Accurately ripped (confidence 1) [2BBCEE6A] (AR v2)
Copy OK

Track 6 Filename C:\David Wright - (1992) - Between Realities\06 - Illusions.wav Pre-gap length 0:00:01.00 Peak level 44.1 %
Extraction speed 3.9 X
Track quality 100.0 %
Test CRC 0CB2D7D1
Copy CRC 0CB2D7D1
Accurately ripped (confidence 1) [ED26C2C8] (AR v2)
Copy OK

All tracks accurately ripped

No errors occurred

End of status report

---- CUETools DB Plugin V2.1.3

[CTDB TOCID: aOjnQY5XSZk4v.5.VV1Asj.RWXM-] disk not present in database, Submit result: aOjnQY5XSZk4v.5.VV1Asj.RWXM- has been uploaded

==== Log checksum 04F262FD5CCF46EA9EFF5F8170EEB2CFA876C8F96E6F3D973BDFA353D3E03E07 ====

[CUETools log; Date: 18.04.2015 19:31:21; Version: 2.1.4]
[CTDB TOCID: aOjnQY5XSZk4v.5.VV1Asj.RWXM-] found.
Track | CTDB Status
1 | (1/1) Accurately ripped
2 | (1/1) Accurately ripped
3 | (1/1) Accurately ripped
4 | (1/1) Accurately ripped
5 | (1/1) Accurately ripped
6 | (1/1) Accurately ripped
[AccurateRip ID: 00104357-0057abd0-51125c06] found.
Track [ CRC | V2 ] Status
01 [2504f235|d5e7a6a3] (0+2/2) Accurately ripped
02 [473d7311|3d612372] (0+2/2) Accurately ripped
03 [86da4aba|4c5bb965] (0+2/2) Accurately ripped
04 [4c3874f2|7e1e0272] (0+2/2) Accurately ripped
05 [416134d2|2bbcee6a] (0+2/2) Accurately ripped
06 [16acd78e|ed26c2c8] (0+2/2) Accurately ripped

Track Peak [ CRC32 ] [W/O NULL] [ LOG ]
-- 100,0 [FBFAC235] [61B001FE]
01 100,0 [D0EDC5D0] [3D2DB9E2] CRC32
02 100,0 [D5D02E1A] [9A1B4F7C] CRC32
03 53,0 [218988F0] [4B74439D] CRC32
04 90,2 [D480F648] [9C90FE42] CRC32
05 86,8 [4008BE1F] [55B24A17] CRC32
06 44,1 [0CB2D7D1] [F8D93D1F] CRC32



David Wright - 6 Albums (1991-1998)

David Wright - Ocean Watch (1993)
EAC Rip | FLAC (tracks+.cue+log) - 433 MB | MP3 CBR 320 kbps (LAME 3.93) - 184 MB | Covers - 161 MB
Genre: New Age, Electronic, Ambient | RAR 3% Rec. | Label: AD Music (AD6CD)

Tracklist:
01. Dream Maker
02. Ocean Watch
03. Nomad
04. Glass Mountains
05. Seven Seas
06. Desert Storm
07. Reflections
08. Beyond the Airwaves #2

Total time: 01:18:20

Exact Audio Copy V1.0 beta 3 from 29. August 2011

EAC extraction logfile from 20. October 2014, 15:22

David Wright / Ocean Watch

Used drive : ASUS DVD-E616A2 Adapter: 2 ID: 0

Read mode : Secure
Utilize accurate stream : Yes
Defeat audio cache : Yes
Make use of C2 pointers : No

Read offset correction

: 6
Overread into Lead-In and Lead-Out : No
Fill up missing offset samples with silence : Yes
Delete leading and trailing silent blocks : No
Null samples used in CRC calculations : Yes
Used interface
: Installed external ASPI interface
Gap handling
: Appended to previous track

Used output format : User Defined Encoder
Selected bitrate : 1024 kBit/s
Quality : High
Add ID3 tag : No
Command line compressor : ..\..\codecs\flac.exe
Additional command line options : -T "comment=Ripped by Synthrex for New-Team.org" -8 -V %source%

TOC of the extracted CD Track | Start | Length | Start sector | End sector
1 | 0:00.10 | 7:37.55 | 10 | 34339 2 | 7:37.65 | 10:03.00 | 34340 | 79564 3 | 17:40.65 | 5:12.50 | 79565 | 103014 4 | 22:53.40 | 5:44.30 | 103015 | 128844 5 | 28:37.70 | 11:20.32 | 128845 | 179876 6 | 39:58.27 | 6:10.40 | 179877 | 207666 7 | 46:08.67 | 4:15.30 | 207667 | 226821 8 | 50:24.22 | 27:47.63 | 226822 | 351909

Track 1 Filename C:\David Wright - (1993) - Ocean Watch\01 - Dream Maker.wav Pre-gap length 0:00:02.10 Peak level 100.0 %
Extraction speed 2.0 X
Track quality 100.0 %
Test CRC ACEA14EF
Copy CRC ACEA14EF
Accurately ripped (confidence 3) [09E03E62] (AR v2)
Copy OK

Track 2 Filename C:\David Wright - (1993) - Ocean Watch\02 - Ocean Watch.wav Peak level 96.9 %
Extraction speed 2.5 X
Track quality 100.0 %
Test CRC F8CC256B
Copy CRC F8CC256B
Accurately ripped (confidence 3) [027EF625] (AR v2)
Copy OK

Track 3 Filename C:\David Wright - (1993) - Ocean Watch\03 - Nomad.wav Peak level 81.9 %
Extraction speed 2.6 X
Track quality 100.0 %
Test CRC 722E35D0
Copy CRC 722E35D0
Accurately ripped (confidence 3) [3E655663] (AR v2)
Copy OK

Track 4 Filename C:\David Wright - (1993) - Ocean Watch\04 - Glass Mountains.wav Peak level 63.4 %
Extraction speed 2.8 X
Track quality 100.0 %
Test CRC 1204B24B
Copy CRC 1204B24B
Accurately ripped (confidence 3) [6F8D0759] (AR v2)
Copy OK

Track 5 Filename C:\David Wright - (1993) - Ocean Watch\05 - Seven Seas.wav Peak level 97.5 %
Extraction speed 3.2 X
Track quality 100.0 %
Test CRC 55CA14C1
Copy CRC 55CA14C1
Accurately ripped (confidence 3) [71959D0C] (AR v2)
Copy OK

Track 6 Filename C:\David Wright - (1993) - Ocean Watch\06 - Desert Storm.wav Peak level 100.0 %
Extraction speed 3.0 X
Track quality 99.9 %
Test CRC C56EC851
Copy CRC C56EC851
Accurately ripped (confidence 3) [7A2A0EBE] (AR v2)
Copy OK

Track 7 Filename C:\David Wright - (1993) - Ocean Watch\07 - Reflections.wav Peak level 89.6 %
Extraction speed 3.3 X
Track quality 100.0 %
Test CRC 5294A820
Copy CRC 5294A820
Accurately ripped (confidence 3) [C0F2839A] (AR v2)
Copy OK

Track 8 Filename C:\David Wright - (1993) - Ocean Watch\08 - Beyond the Airwaves #2.wav Peak level 99.0 %
Extraction speed 4.1 X
Track quality 100.0 %
Test CRC CBC9C9FC
Copy CRC CBC9C9FC
Accurately ripped (confidence 3) [7AD779C5] (AR v2)
Copy OK

All tracks accurately ripped

No errors occurred

End of status report

==== Log checksum 0F44C2044AED28D50FED68EEA24814A1279F98BCBDD3F44E0DCA19AA863F26C7 ====

[CUETools log; Date: 18.04.2015 19:31:48; Version: 2.1.4]
Pregap length 00:00:10.
[CTDB TOCID: CZy37zThUIupvwXzh2MHgRUYd1A-] disk not present in database.
[AccurateRip ID: 00140533-0087791f-60125408] found.
Track [ CRC | V2 ] Status
01 [8537042d|09e03e62] (3+5/8) Accurately ripped
02 [67ac925b|027ef625] (3+5/8) Accurately ripped
03 [a716e4f3|3e655663] (3+5/8) Accurately ripped
04 [0831e98d|6f8d0759] (3+5/8) Accurately ripped
05 [d7ba66bd|71959d0c] (3+5/8) Accurately ripped
06 [8d9b8fcb|7a2a0ebe] (3+5/8) Accurately ripped
07 [49f5d176|c0f2839a] (3+5/8) Accurately ripped
08 [c978bef7|7ad779c5] (3+5/8) Accurately ripped

Track Peak [ CRC32 ] [W/O NULL] [ LOG ]
-- 100,0 [EF95F3C2] [3017D4E2]
01 100,0 [ACEA14EF] 11B9116 CRC32
02 96,9 [F8CC256B] 12CDDF5 CRC32
03 81,9 [722E35D0] [D6813611] CRC32
04 63,4 [1204B24B] [1020151E] CRC32
05 97,5 [55CA14C1] [699B6604] CRC32
06 100,0 [C56EC851] 6D9321E CRC32
07 89,6 [5294A820] [98379B68] CRC32
08 99,0 [CBC9C9FC] [F8117445] CRC32

David Wright - 6 Albums (1991-1998)

David Wright - Moments in Time (1994)
EAC Rip | FLAC (tracks+.cue+log) - 391 MB | MP3 CBR 320 kbps (LAME 3.93) - 180 MB | Covers - 168 MB
Genre: New Age, Electronic, Ambient | RAR 3% Rec. | Label: AD Music (AD7CD)

Tracklist:
01. Ancient Dreams... Midas
02. Spirit of the Plains 1st Movement: Napi
03. Spirit of the Plains 2nd Movement: Eveningstar
04. Spirit of the Plains 3rd Movement: Stormbringer
05. Spirit of the Plains 4th Movement: Running Cloud
06. Spirit of the Plains 5th Movement: Flight of the Nez Percé

Total time: 01:16:43

Exact Audio Copy V1.0 beta 3 from 29. August 2011

EAC extraction logfile from 20. October 2014, 13:25

David Wright / Moments in Time

Used drive : Optiarc DVD-ROM DDU1675S Adapter: 0 ID: 1

Read mode : Secure
Utilize accurate stream : Yes
Defeat audio cache : Yes
Make use of C2 pointers : No

Read offset correction

: 6
Overread into Lead-In and Lead-Out : No
Fill up missing offset samples with silence : Yes
Delete leading and trailing silent blocks : No
Null samples used in CRC calculations : Yes
Used interface
: Installed external ASPI interface
Gap handling
: Appended to previous track

Used output format : User Defined Encoder
Selected bitrate : 1024 kBit/s
Quality : High
Add ID3 tag : No
Command line compressor : ..\..\codecs\flac.exe
Additional command line options : -T "comment=Ripped by Synthrex for New-Team.org" -8 -V %source%

TOC of the extracted CD Track | Start | Length | Start sector | End sector
1 | 0:00.00 | 7:26.47 | 0 | 33496 2 | 7:26.47 | 15:38.58 | 33497 | 103904 3 | 23:05.30 | 15:44.62 | 103905 | 174766 4 | 38:50.17 | 11:29.10 | 174767 | 226451 5 | 50:19.27 | 14:38.45 | 226452 | 292346 6 | 64:57.72 | 11:44.63 | 292347 | 345209

Track 1 Filename C:\David Wright - (1994) - Moments in Time\01 - Ancient Dreams... Midas.wav Pre-gap length 0:00:02.00 Peak level 93.3 %
Extraction speed 6.0 X
Track quality 100.0 %
Test CRC 276B3166
Copy CRC 276B3166
Accurately ripped (confidence 3) [F4679517] (AR v2)
Copy OK

Track 2 Filename C:\David Wright - (1994) - Moments in Time\02 - Spirit of the Plains 1st Movement- Napi.wav Pre-gap length 0:00:02.33 Peak level 75.0 %
Extraction speed 7.7 X
Track quality 100.0 %
Test CRC 0A6ECF18
Copy CRC 0A6ECF18
Accurately ripped (confidence 3) [6B770B98] (AR v2)
Copy OK

Track 3 Filename C:\David Wright - (1994) - Moments in Time\03 - Spirit of the Plains 2nd Movement- Eveningstar.wav Pre-gap length 0:00:02.43 Peak level 66.5 %
Extraction speed 8.1 X
Track quality 99.9 %
Test CRC E91F1116
Copy CRC E91F1116
Accurately ripped (confidence 3) [E2FA4AB1] (AR v2)
Copy OK

Track 4 Filename C:\David Wright - (1994) - Moments in Time\04 - Spirit of the Plains 3rd Movement- Stormbringer.wav Pre-gap length 0:00:01.28 Peak level 71.6 %
Extraction speed 8.4 X
Track quality 100.0 %
Test CRC 73708CD6
Copy CRC 73708CD6
Accurately ripped (confidence 4) [5254EC1C] (AR v2)
Copy OK

Track 5 Filename C:\David Wright - (1994) - Moments in Time\05 - Spirit of the Plains 4th Movement- Running Cloud.wav Peak level 58.7 %
Extraction speed 9.4 X
Track quality 100.0 %
Test CRC 631A8C71
Copy CRC 631A8C71
Accurately ripped (confidence 4) [9746A189] (AR v2)
Copy OK

Track 6 Filename C:\David Wright - (1994) - Moments in Time\06 - Spirit of the Plains 5th Movement- Flight of the Nez Percé.wav Pre-gap length 0:00:05.23 Peak level 77.2 %
Extraction speed 8.7 X
Track quality 99.9 %
Test CRC 4E619AD5
Copy CRC 4E619AD5
Accurately ripped (confidence 3) [104FD841] (AR v2)
Copy OK

All tracks accurately ripped

No errors occurred

End of status report

---- CUETools DB Plugin V2.1.3

[CTDB TOCID: HU9qbc7oZ.fSvwyMyPGORQ_v5DQ-] disk not present in database, Submit result: HU9qbc7oZ.fSvwyMyPGORQ_v5DQ- has been uploaded

==== Log checksum 3FD02477DBD81EFC6BC5EF5A0EA750DE5C524C1FFFE0EFBBB0A05C929C8B0459 ====

[CUETools log; Date: 18.04.2015 19:32:29; Version: 2.1.4]
[CTDB TOCID: HU9qbc7oZ.fSvwyMyPGORQ_v5DQ-] found.
Track | CTDB Status
1 | (3/3) Accurately ripped
2 | (1/3) Accurately ripped
3 | (1/3) Accurately ripped
4 | (1/3) Accurately ripped
5 | (1/3) Accurately ripped
6 | (1/3) Accurately ripped
[AccurateRip ID: 0011f272-00615c2e-5211fa06] found.
Track [ CRC | V2 ] Status
01 [60729e0f|f4679517] (2+5/7) Accurately ripped
02 [d235acb4|6b770b98] (2+5/7) Accurately ripped
03 [0b3bd126|e2fa4ab1] (2+5/7) Accurately ripped
04 [16b5e5ef|5254ec1c] (2+6/8) Accurately ripped
05 [f8152834|9746a189] (2+5/7) Accurately ripped
06 [9244b7bd|104fd841] (2+4/6) Accurately ripped

Track Peak [ CRC32 ] [W/O NULL] [ LOG ]
-- 93,3 9485AB7 [FAAC8CCE]
01 93,3 [276B3166] [AF45939F] CRC32
02 75,0 [0A6ECF18] [C3A5DFC8] CRC32
03 66,5 [E91F1116] [63798B94] CRC32
04 71,6 [73708CD6] [3DA57C4F] CRC32
05 58,7 [631A8C71] 0B7C130 CRC32
06 77,2 [4E619AD5] [DA571EC4] CRC32

David Wright - 6 Albums (1991-1998)

David Wright - Live at the London Planetarium (1996)
EAC Rip | FLAC (tracks+.cue+log) - 372 MB | MP3 CBR 320 kbps (LAME 3.93) - 182 MB | Covers - 78 MB
Genre: New Age, Electronic, Ambient | RAR 3% Rec. | Label: AD Music (AD17CD)

Tracklist:
01. Landing
02. Enchantress
03. Ryseara
04. Images
05. London
06. Love Theme
07. Running Cloud
08. Bridge to the Sun
09. Buffalo Run
10. Berlin
11. Nomad
12. Legend of the Tundra

Total time: 01:17:25

Exact Audio Copy V1.0 beta 3 from 29. August 2011

EAC extraction logfile from 18. January 2015, 19:55

David Wright / Live at the London Planetarium

Used drive : SONY DVD RW DRU-190S Adapter: 3 ID: 0

Read mode : Secure
Utilize accurate stream : Yes
Defeat audio cache : Yes
Make use of C2 pointers : No

Read offset correction

: 6
Overread into Lead-In and Lead-Out : No
Fill up missing offset samples with silence : Yes
Delete leading and trailing silent blocks : No
Null samples used in CRC calculations : Yes
Used interface
: Installed external ASPI interface
Gap handling
: Appended to previous track

Used output format : User Defined Encoder
Selected bitrate : 1024 kBit/s
Quality : High
Add ID3 tag : No
Command line compressor : ..\..\codecs\flac.exe
Additional command line options : -T "comment=Ripped by Synthrex for New-Team.org" -8 -V %source%

TOC of the extracted CD Track | Start | Length | Start sector | End sector
1 | 0:00.00 | 3:22.60 | 0 | 15209 2 | 3:22.60 | 5:07.67 | 15210 | 38301 3 | 8:30.52 | 7:35.20 | 38302 | 72446 4 | 16:05.72 | 4:51.73 | 72447 | 94344 5 | 20:57.70 | 4:53.35 | 94345 | 116354 6 | 25:51.30 | 2:59.60 | 116355 | 129839 7 | 28:51.15 | 12:15.27 | 129840 | 184991 8 | 41:06.42 | 1:32.43 | 184992 | 191934 9 | 42:39.10 | 10:41.02 | 191935 | 240011
10 | 53:20.12 | 9:40.20 | 240012 | 283531
11 | 63:00.32 | 4:44.28 | 283532 | 304859
12 | 67:44.60 | 9:40.17 | 304860 | 348376

Track 1 Filename C:\David Wright - (1996) - Live at the London Planetarium\01.Landing.wav Pre-gap length 0:00:02.00 Peak level 33.8 %
Extraction speed 4.7 X
Track quality 100.0 %
Test CRC C89B4528
Copy CRC C89B4528
Accurately ripped (confidence 2) EF0ABE6 (AR v2)
Copy OK

Track 2 Filename C:\David Wright - (1996) - Live at the London Planetarium\02.Enchantress.wav Peak level 40.8 %
Extraction speed 5.4 X
Track quality 100.0 %
Test CRC F9EDC9FC
Copy CRC F9EDC9FC
Accurately ripped (confidence 2) [5A939171] (AR v2)
Copy OK

Track 3 Filename C:\David Wright - (1996) - Live at the London Planetarium\03.Ryseara.wav Peak level 50.0 %
Extraction speed 6.2 X
Track quality 100.0 %
Test CRC 26BB1B17
Copy CRC 26BB1B17
Accurately ripped (confidence 2) [AA4FBCC8] (AR v2)
Copy OK

Track 4 Filename C:\David Wright - (1996) - Live at the London Planetarium\04.Images.wav Peak level 16.7 %
Extraction speed 6.5 X
Track quality 100.0 %
Test CRC 6A96A1BF
Copy CRC 6A96A1BF
Accurately ripped (confidence 2) [C3BD931E] (AR v2)
Copy OK

Track 5 Filename C:\David Wright - (1996) - Live at the London Planetarium\05.London.wav Peak level 28.6 %
Extraction speed 6.2 X
Track quality 99.9 %
Test CRC 5C7FB981
Copy CRC 5C7FB981
Accurately ripped (confidence 2) [E9232DAD] (AR v2)
Copy OK

Track 6 Filename C:\David Wright - (1996) - Live at the London Planetarium\06.Love Theme.wav Peak level 33.4 %
Extraction speed 6.7 X
Track quality 100.0 %
Test CRC 402E2295
Copy CRC 402E2295
Accurately ripped (confidence 2) [E1DF6C59] (AR v2)
Copy OK

Track 7 Filename C:\David Wright - (1996) - Live at the London Planetarium\07.Running Cloud.wav Peak level 42.8 %
Extraction speed 7.9 X
Track quality 99.9 %
Test CRC 98A973DE
Copy CRC 98A973DE
Accurately ripped (confidence 2) [51D7F37F] (AR v2)
Copy OK

Track 8 Filename C:\David Wright - (1996) - Live at the London Planetarium\08.Bridge to the Sun.wav Peak level 31.4 %
Extraction speed 6.5 X
Track quality 100.0 %
Test CRC D01855B2
Copy CRC D01855B2
Accurately ripped (confidence 2) [31C6D451] (AR v2)
Copy OK

Track 9 Filename C:\David Wright - (1996) - Live at the London Planetarium\09.Buffalo Run.wav Peak level 48.4 %
Extraction speed 9.1 X
Track quality 100.0 %
Test CRC 8EAA16E6
Copy CRC 8EAA16E6
Accurately ripped (confidence 2) [5EB4F8C0] (AR v2)
Copy OK

Track 10 Filename C:\David Wright - (1996) - Live at the London Planetarium\10.Berlin.wav Peak level 55.6 %
Extraction speed 9.7 X
Track quality 100.0 %
Test CRC E1335C14
Copy CRC E1335C14
Accurately ripped (confidence 2) [3842E0CE] (AR v2)
Copy OK

Track 11 Filename C:\David Wright - (1996) - Live at the London Planetarium\11.Nomad.wav Peak level 47.5 %
Extraction speed 9.4 X
Track quality 100.0 %
Test CRC 76C7D521
Copy CRC 76C7D521
Accurately ripped (confidence 2) [C6761834] (AR v2)
Copy OK

Track 12 Filename C:\David Wright - (1996) - Live at the London Planetarium\12.Legend of the Tundra.wav Peak level 62.1 %
Extraction speed 9.8 X
Track quality 100.0 %
Test CRC 76CF7B76
Copy CRC 76CF7B76
Accurately ripped (confidence 2) [2D3D0814] (AR v2)
Copy OK

All tracks accurately ripped

No errors occurred

End of status report

---- CUETools DB Plugin V2.1.6

[CTDB TOCID: t_2C80IiyE90wejuHJkD5dGMUy0-] found
Submit result: t_2C80IiyE90wejuHJkD5dGMUy0- has been confirmed
Track | CTDB Status
1 | (1/1) Accurately ripped
2 | (1/1) Accurately ripped
3 | (1/1) Accurately ripped
4 | (1/1) Accurately ripped
5 | (1/1) Accurately ripped
6 | (1/1) Accurately ripped
7 | (1/1) Accurately ripped
8 | (1/1) Accurately ripped
9 | (1/1) Accurately ripped
10 | (1/1) Accurately ripped
11 | (1/1) Accurately ripped
12 | (1/1) Accurately ripped

==== Log checksum 04F97DF5E366706A7AA9C54034904387A63B6AE2B7AEF55F59F5C29E0D65253E ====

[CUETools log; Date: 18.04.2015 19:32:58; Version: 2.1.4]
[CTDB TOCID: t_2C80IiyE90wejuHJkD5dGMUy0-] found.
Track | CTDB Status
1 | (2/2) Accurately ripped
2 | (2/2) Accurately ripped
3 | (2/2) Accurately ripped
4 | (2/2) Accurately ripped
5 | (2/2) Accurately ripped
6 | (2/2) Accurately ripped
7 | (2/2) Accurately ripped
8 | (2/2) Accurately ripped
9 | (2/2) Accurately ripped
10 | (2/2) Accurately ripped
11 | (2/2) Accurately ripped
12 | (2/2) Accurately ripped
[AccurateRip ID: 001ed36f-01287042-a012250c] found.
Track [ CRC | V2 ] Status
01 [7bade0d7|bef0abe6] (0+3/3) Accurately ripped
02 [9c260196|5a939171] (0+3/3) Accurately ripped
03 ed19c07|aa4fbcc8 (0+3/3) Accurately ripped
04 [201b0b88|c3bd931e] (0+3/3) Accurately ripped
05 [67ea6572|e9232dad] (0+3/3) Accurately ripped
06 [98329e02|e1df6c59] (0+3/3) Accurately ripped
07 [c397247b|51d7f37f] (0+3/3) Accurately ripped
08 [8791e78e|31c6d451] (0+3/3) Accurately ripped
09 [fc929301|5eb4f8c0] (0+3/3) Accurately ripped
10 [36f58066|3842e0ce] (0+3/3) Accurately ripped
11 [3e60ea71|c6761834] (0+3/3) Accurately ripped
12 [f9cd02c0|2d3d0814] (0+3/3) Accurately ripped

Track Peak [ CRC32 ] [W/O NULL] [ LOG ]
-- 62,1 [F5CD4A64] [328B8AE4]
01 33,8 [C89B4528] [C8A89381] CRC32
02 40,8 [F9EDC9FC] [CAB5E529] CRC32
03 50,0 [26BB1B17] 3753CB3 CRC32
04 16,7 [6A96A1BF] [50C944CB] CRC32
05 28,6 [5C7FB981] [C1CBC139] CRC32
06 33,4 [402E2295] [D5BE5901] CRC32
07 42,8 [98A973DE] [C3BEB551] CRC32
08 31,4 [D01855B2] [91C74C1E] CRC32
09 48,4 [8EAA16E6] [50183226] CRC32
10 55,6 [E1335C14] [56821435] CRC32
11 47,5 [76C7D521] [020B8B54] CRC32
12 62,1 [76CF7B76] [A21C69B0] CRC32

David Wright - 6 Albums (1991-1998)

David Wright - ThreeSixZero (1998)
EAC Rip | FLAC (tracks+.cue+log) - 404 MB | MP3 CBR 320 kbps (LAME 3.93) - 187 MB | Covers - 127 MB
Genre: New Age, Electronic, Ambient | RAR 3% Rec. | Label: AD Music (AD20CD)

Tracklist:
01. Guardians
02. Dark Side of Paradise
03. Sliding
04. Memories
05. Change and Adapt
06. Tales from the East
07. Wishes
08. Sygyzy
09. China Skies
10. Akirima
11. Shah
12. Listen!
13. Tales from the West
14. Before the Storm
15. ThreeSixZero

Total time: 01:19:27

Exact Audio Copy V1.0 beta 4 from 7. December 2014

EAC extraction logfile from 7. March 2015, 9:42

David Wright / ThreeSixZero

Used drive : PIONEER DVD-RW DVR-215D Adapter: 5 ID: 0

Read mode : Secure
Utilize accurate stream : Yes
Defeat audio cache : Yes
Make use of C2 pointers : No

Read offset correction

: 48
Overread into Lead-In and Lead-Out : No
Fill up missing offset samples with silence : Yes
Delete leading and trailing silent blocks : No
Null samples used in CRC calculations : Yes
Used interface
: Installed external ASPI interface
Gap handling
: Appended to previous track

Used output format : User Defined Encoder
Selected bitrate : 1024 kBit/s
Quality : High
Add ID3 tag : No
Command line compressor : ..\..\codecs\flac.exe
Additional command line options : -T "comment=Ripped by Synthrex for New-Team.org" -8 -V %source%

TOC of the extracted CD Track | Start | Length | Start sector | End sector
1 | 0:00.00 | 6:52.05 | 0 | 30904 2 | 6:52.05 | 3:27.33 | 30905 | 46462 3 | 10:19.38 | 5:24.07 | 46463 | 70769 4 | 15:43.45 | 3:42.28 | 70770 | 87447 5 | 19:25.73 | 3:55.04 | 87448 | 105076 6 | 23:21.02 | 6:23.13 | 105077 | 133814 7 | 29:44.15 | 7:00.46 | 133815 | 165360 8 | 36:44.61 | 5:18.04 | 165361 | 189214 9 | 42:02.65 | 6:45.29 | 189215 | 219618
10 | 48:48.19 | 4:06.47 | 219619 | 238115
11 | 52:54.66 | 6:10.20 | 238116 | 265885
12 | 59:05.11 | 2:52.35 | 265886 | 278820
13 | 61:57.46 | 4:56.03 | 278821 | 301023
14 | 66:53.49 | 5:08.13 | 301024 | 324136
15 | 72:01.62 | 7:25.13 | 324137 | 357524

Track 1 Filename C:\David Wright - (1998) - ThreeSixZero\01.Guardians.wav Pre-gap length 0:00:02.00 Peak level 98.7 %
Extraction speed 5.2 X
Track quality 100.0 %
Test CRC DD2791C0
Copy CRC DD2791C0
Accurately ripped (confidence 3) [85061342] (AR v2)
Copy OK

Track 2 Filename C:\David Wright - (1998) - ThreeSixZero\02.Dark Side of Paradise.wav Pre-gap length 0:00:01.74 Peak level 83.2 %
Extraction speed 5.3 X
Track quality 100.0 %
Test CRC 2CF062E3
Copy CRC 2CF062E3
Accurately ripped (confidence 3) [CDA78F0F] (AR v2)
Copy OK

Track 3 Filename C:\David Wright - (1998) - ThreeSixZero\03.Sliding.wav Peak level 97.9 %
Extraction speed 6.0 X
Track quality 100.0 %
Test CRC 7D2A0277
Copy CRC 7D2A0277
Accurately ripped (confidence 3) [70E9DE7C] (AR v2)
Copy OK

Track 4 Filename C:\David Wright - (1998) - ThreeSixZero\04.Memories.wav Peak level 80.4 %
Extraction speed 6.0 X
Track quality 100.0 %
Test CRC AA21CF81
Copy CRC AA21CF81
Accurately ripped (confidence 3) [10A78280] (AR v2)
Copy OK

Track 5 Filename C:\David Wright - (1998) - ThreeSixZero\05.Change and Adapt.wav Peak level 93.0 %
Extraction speed 5.7 X
Track quality 99.9 %
Test CRC 1EB407BB
Copy CRC 1EB407BB
Accurately ripped (confidence 3) [EAE256C7] (AR v2)
Copy OK

Track 6 Filename C:\David Wright - (1998) - ThreeSixZero\06.Tales from the East.wav Pre-gap length 0:00:02.00 Peak level 92.7 %
Extraction speed 7.1 X
Track quality 100.0 %
Test CRC 1BDCBC28
Copy CRC 1BDCBC28
Accurately ripped (confidence 3) [0F22BB3D] (AR v2)
Copy OK

Track 7 Filename C:\David Wright - (1998) - ThreeSixZero\07.Wishes.wav Peak level 82.0 %
Extraction speed 7.1 X
Track quality 99.9 %
Test CRC 5E9F3138
Copy CRC 5E9F3138
Accurately ripped (confidence 3) [41215A49] (AR v2)
Copy OK

Track 8 Filename C:\David Wright - (1998) - ThreeSixZero\08.Sygyzy.wav Peak level 100.0 %
Extraction speed 7.1 X
Track quality 99.9 %
Test CRC F1F0523B
Copy CRC F1F0523B
Accurately ripped (confidence 3) [0A5A189A] (AR v2)
Copy OK

Track 9 Filename C:\David Wright - (1998) - ThreeSixZero\09.China Skies.wav Pre-gap length 0:00:02.00 Peak level 66.4 %
Extraction speed 7.7 X
Track quality 99.9 %
Test CRC 36BDD4C0
Copy CRC 36BDD4C0
Accurately ripped (confidence 3) [86DFFBA1] (AR v2)
Copy OK

Track 10 Filename C:\David Wright - (1998) - ThreeSixZero\10.Akirima.wav Peak level 74.6 %
Extraction speed 7.2 X
Track quality 99.9 %
Test CRC A20F9EB6
Copy CRC A20F9EB6
Accurately ripped (confidence 3) [AB89027D] (AR v2)
Copy OK

Track 11 Filename C:\David Wright - (1998) - ThreeSixZero\11.Shah.wav Peak level 84.1 %
Extraction speed 8.8 X
Track quality 100.0 %
Test CRC 8A9494D8
Copy CRC 8A9494D8
Accurately ripped (confidence 3) [86997134] (AR v2)
Copy OK

Track 12 Filename C:\David Wright - (1998) - ThreeSixZero\12.Listen!.wav Peak level 96.8 %
Extraction speed 8.2 X
Track quality 100.0 %
Test CRC E3A8086F
Copy CRC E3A8086F
Accurately ripped (confidence 3) [D97DD38B] (AR v2)
Copy OK

Track 13 Filename C:\David Wright - (1998) - ThreeSixZero\13.Tales from the West.wav Peak level 98.4 %
Extraction speed 8.9 X
Track quality 100.0 %
Test CRC 92DF0D29
Copy CRC 92DF0D29
Accurately ripped (confidence 3) [FE5D8A74] (AR v2)
Copy OK

Track 14 Filename C:\David Wright - (1998) - ThreeSixZero\14.Before the Storm.wav Peak level 60.5 %
Extraction speed 9.0 X
Track quality 100.0 %
Test CRC 3D8260C0
Copy CRC 3D8260C0
Accurately ripped (confidence 3) [26400E54] (AR v2)
Copy OK

Track 15 Filename C:\David Wright - (1998) - ThreeSixZero\15.ThreeSixZero.wav Peak level 91.8 %
Extraction speed 9.7 X
Track quality 100.0 %
Test CRC 6A18977A
Copy CRC 6A18977A
Accurately ripped (confidence 3) [1C13DDB1] (AR v2)
Copy OK

All tracks accurately ripped

No errors occurred

End of status report

---- CUETools DB Plugin V2.1.6

[CTDB TOCID: ujbcIVvjrMWMxLEP80RaOgXcxm8-] disk not present in database
Submit result: ujbcIVvjrMWMxLEP80RaOgXcxm8- has been uploaded

==== Log checksum 7A2889EC6919950FDD7D05B420DC8C2F68833C8DD45C98975BBB50D05FCDD998 ====

[CUETools log; Date: 18.04.2015 19:33:26; Version: 2.1.4]
[CTDB TOCID: ujbcIVvjrMWMxLEP80RaOgXcxm8-] found.
Track | CTDB Status
1 | (2/2) Accurately ripped
2 | (2/2) Accurately ripped
3 | (2/2) Accurately ripped
4 | (2/2) Accurately ripped
5 | (2/2) Accurately ripped
6 | (2/2) Accurately ripped
7 | (2/2) Accurately ripped
8 | (2/2) Accurately ripped
9 | (2/2) Accurately ripped
10 | (2/2) Accurately ripped
11 | (2/2) Accurately ripped
12 | (2/2) Accurately ripped
13 | (2/2) Accurately ripped
14 | (2/2) Accurately ripped
15 | (2/2) Accurately ripped
[AccurateRip ID: 002af0e6-01e765b8-c6129f0f] found.
Track [ CRC | V2 ] Status
01 [eda482b1|85061342] (0+3/5) Accurately ripped
02 [4cf05612|cda78f0f] (0+3/5) Accurately ripped
03 [9b22addb|70e9de7c] (0+3/5) Accurately ripped
04 [4a324743|10a78280] (0+3/5) Accurately ripped
05 d30ef56|eae256c7 (0+3/5) Accurately ripped
06 [ac199d73|0f22bb3d] (0+3/5) Accurately ripped
07 [6397c6e3|41215a49] (0+3/5) Accurately ripped
08 [a31e323a|0a5a189a] (0+3/5) Accurately ripped
09 [e01d0cf5|86dffba1] (0+3/5) Accurately ripped
10 9765d80|ab89027d (0+3/5) Accurately ripped
11 [c75a319d|86997134] (0+3/5) Accurately ripped
12 [f580c9c9|d97dd38b] (0+3/5) Accurately ripped
13 [e61d3b44|fe5d8a74] (0+3/5) Accurately ripped
14 [a274d774|26400e54] (0+3/5) Accurately ripped
15 7316032|1c13ddb1 (0+3/5) Accurately ripped
Offsetted by -65:
01 [df0808f8] (0/5) No match (V2 was not tested)
02 [a86e3d9f] (0/5) No match (V2 was not tested)
03 [585692a9] (0/5) No match (V2 was not tested)
04 [cd0a1f42] (0/5) No match (V2 was not tested)
05 [f67f7808] (0/5) No match (V2 was not tested)
06 [988bd35e] (0/5) No match (V2 was not tested)
07 [05efd019] (0/5) No match (V2 was not tested)
08 [884d2c9d] (0/5) No match (V2 was not tested)
09 [1c41c9c3] (0/5) No match (V2 was not tested)
10 [84886fa2] (0/5) No match (V2 was not tested)
11 [5fcd1da9] (0/5) No match (V2 was not tested)
12 [c724a8ad] (0/5) No match (V2 was not tested)
13 [3105c747] (0/5) No match (V2 was not tested)
14 [d15122d7] (0/5) No match (V2 was not tested)
15 [145a88b0] (0/5) No match (V2 was not tested)

Track Peak [ CRC32 ] [W/O NULL] [ LOG ]
-- 100,0 [91C1C6C4] CDE109C
01 98,7 [DD2791C0] [19E1E99A] CRC32
02 83,2 [2CF062E3] B8FF85D CRC32
03 97,9 [7D2A0277] [3C7A8109] CRC32
04 80,4 [AA21CF81] [C50BD651] CRC32
05 93,0 [1EB407BB] [70DC2B5C] CRC32
06 92,7 [1BDCBC28] [5AEB0EDE] CRC32
07 82,0 [5E9F3138] [511BE4F1] CRC32
08 100,0 [F1F0523B] [81F6E7CD] CRC32
09 66,4 [36BDD4C0] [765F6EFB] CRC32
10 74,6 [A20F9EB6] [197B2402] CRC32
11 84,1 [8A9494D8] [2187F435] CRC32
12 96,8 [E3A8086F] [0981988C] CRC32
13 98,4 [92DF0D29] [E60E930D] CRC32
14 60,5 [3D8260C0] [6C64AA57] CRC32
15 91,8 [6A18977A] [72F2B3DD] CRC32

Thanks to Synthrex
DOWNLOAD LINKS:
Buy Premium To Support Me & Get Resumable Support & Max Speed

Rapidgator.net:
iddew.1DWM2091.rar.html
iddew.1DWM209120sc.rar.html
iddew.1DWM91M.rar.html
iddew.2DWBR209220sc.rar.html
iddew.2DWBR92.rar.html
iddew.2DWBR92M.rar.html
iddew.3DWOW209320sc.rar.html
iddew.3DWOW93.rar.html
iddew.3DWOW93M.rar.html
iddew.4DWMiT.94.sc.rar.html
iddew.4DWMiT2094.rar.html
iddew.4DWMiT94M.rar.html
iddew.5DWLatLP209620sc.rar.html
iddew.5DWLatLP96.rar.html
iddew.5DWLatLP96M.rar.html
iddew.6DWT209820sc.rar.html
iddew.6DWT98.rar.html
iddew.6DWT98M.rar.html

Uploadable.ch:
iddew.1DWM2091.rar
iddew.1DWM209120sc.rar
iddew.1DWM91M.rar
iddew.2DWBR209220sc.rar
iddew.2DWBR92.rar
iddew.2DWBR92M.rar
iddew.3DWOW209320sc.rar
iddew.3DWOW93.rar
iddew.3DWOW93M.rar
iddew.4DWMiT.94.sc.rar
iddew.4DWMiT2094.rar
iddew.4DWMiT94M.rar
iddew.5DWLatLP209620sc.rar
iddew.5DWLatLP96.rar
iddew.5DWLatLP96M.rar
iddew.6DWT209820sc.rar
iddew.6DWT98.rar
iddew.6DWT98M.rar

Turbobit.net:
iddew.1DWM2091.rar.html
iddew.1DWM209120sc.rar.html
iddew.1DWM91M.rar.html
iddew.2DWBR209220sc.rar.html
iddew.2DWBR92.rar.html
iddew.2DWBR92M.rar.html
iddew.3DWOW209320sc.rar.html
iddew.3DWOW93.rar.html
iddew.3DWOW93M.rar.html
iddew.4DWMiT.94.sc.rar.html
iddew.4DWMiT2094.rar.html
iddew.4DWMiT94M.rar.html
iddew.5DWLatLP209620sc.rar.html
iddew.5DWLatLP96.rar.html
iddew.5DWLatLP96M.rar.html
iddew.6DWT209820sc.rar.html
iddew.6DWT98.rar.html
iddew.6DWT98M.rar.html

Uploaded.net:
iddew.1DWM2091.rar
iddew.1DWM209120sc.rar
iddew.1DWM91M.rar
iddew.2DWBR209220sc.rar
iddew.2DWBR92.rar
iddew.2DWBR92M.rar
iddew.3DWOW209320sc.rar
iddew.3DWOW93.rar
iddew.3DWOW93M.rar
iddew.4DWMiT.94.sc.rar
iddew.4DWMiT2094.rar
iddew.4DWMiT94M.rar
iddew.5DWLatLP209620sc.rar
iddew.5DWLatLP96.rar
iddew.5DWLatLP96M.rar
iddew.6DWT209820sc.rar
iddew.6DWT98.rar
iddew.6DWT98M.rar

Links are Interchangeable - No Password - Single Extraction
Direct Download

Tags: Wright, Albums

Comments
Name:*
E-Mail:*
Add Comments:
Enter Code: *