Download Now

Michelle Shocked - Deep Natural / Dub Natural (2002)

Michelle Shocked - Deep Natural / Dub Natural (2002)
Rock | 2cd | EAC Rip | Flac + Cue + Log | covers
Mighty Sound, MS10001-1 | rel: 2002 | 710Mb

Michelle Shocked's natural eclecticism, long since unfettered by the commercial considerations of a record label other than her own Mighty Sound imprint, means that, on the infrequent occasions when she issues a new recording, one approaches it with no idea what it will sound like, except, of course, that it won't sound anything like her last one. Deep Natural is a case in point. This time around, an artist who has varied from singer/songwriter folk to swing to traditional country, with elements of rock and gospel thrown in, makes her stand with blues and soul, for the most part.
In this case, that means blues boogie in the manner of John Lee Hooker and gritty soul in the manner of Stax Records. But that isn't all, by any means. Shocked sometimes uses odd percussion and compresses her vocals in a style that recalls Swordfishtrombones-era Tom Waits. She turns to New Orleans second-line rhythm on "Peachfuzz." And she goes back to close-miked, finger-picked folk on the love song for a child "I Know What You Need." She also covers Jimi Hendrix's "House Burning Down" in a slowed-down, stomping arrangement. And then, of course, there are the dub tracks, which are not restricted to the entire extra disc (Dub Natural) packed with the main album, but also include "Can't Take My Joy," a version of the introductory snippet "(((Joy)))." And even within tracks, the styles combine and clash. "Draughts of Dublin," one of the dub tracks, for instance, mixes a Hooker guitar riff with an Irish tin whistle and a Miles Davis-like trumpet. It may be an instrumental, but it is Michelle Shocked at her best, mixing things up and finding connections in forms of music others might keep separate. ~Allmusic

Track listing
cd1:
01. (((Joy))) (0:20)
02. What Can I Say? (4:18)
03. Why Do I Get The Feeling? (4:55)
04. Good News (5:12)
05. Forgive To Forget (4:25)
06. That's So Amazing (5:04)
07. Peachfuzz (4:57)
08. I Know What You Need (4:54)
09. Can't Take My Joy (5:20)
10. Little Billie (4:36)
11. If Not Here (4:09)
12. Moanin' Dove (5:32)
13. House Burning Down (5:45)
14. Psalm (4:19)
15. Go In Peace (5:29)
~ (69:16)

cd2:
01. Go Dub (0:59)
02. I Know What U Dub (4:42)
03. Match Burns Dub (3:15)
04. DOD Dub (0:59)
05. House Burns Dub (5:29)
06. Forget to Dub (3:49)
07. Why Do I Dub? (3:48)
08. Draughts of Dublin (5:27)
09. What Dub? (4:07)
10. Peachfuzz (version dub) (4:58)
11. Can't Take My Dub (5:26)
12. Fat Brown Snake Dub (5:59)
13. F2F Dub (0:48)
~ (49:44)

Exact Audio Copy V0.99 prebeta 5 from 4. May 2009

EAC extraction logfile from 15. August 2009, 10:31

Michelle Shocked / Deep Natural

Used drive : HL-DT-STDVDRAM GH20NS15 Adapter: 2 ID: 0

Read mode : Secure
Utilize accurate stream : Yes
Defeat audio cache : Yes
Make use of C2 pointers : No

Read offset correction

: 667
Overread into Lead-In and Lead-Out : No
Fill up missing offset samples with silence : Yes
Delete leading and trailing silent blocks : No
Null samples used in CRC calculations : Yes
Used interface
: Native Win32 interface for Win NT & 2000

Used output format : Internal WAV Routines
Sample format : 44.100 Hz; 16 Bit; Stereo

TOC of the extracted CD Track | Start | Length | Start sector | End sector
-----------1 | 0:00.00 | 0:20.11 | 0 | 1510 2 | 0:20.11 | 4:18.36 | 1511 | 20896 3 | 4:38.47 | 4:54.61 | 20897 | 43007 4 | 9:33.33 | 5:11.47 | 43008 | 66379 5 | 14:45.05 | 4:24.50 | 66380 | 86229 6 | 19:09.55 | 5:04.01 | 86230 | 109030 7 | 24:13.56 | 4:57.36 | 109031 | 131341 8 | 29:11.17 | 4:54.31 | 131342 | 153422 9 | 34:05.48 | 5:20.16 | 153423 | 177438
10 | 39:25.64 | 4:36.11 | 177439 | 198149
11 | 44:02.00 | 4:09.33 | 198150 | 216857
12 | 48:11.33 | 5:31.69 | 216858 | 241751
13 | 53:43.27 | 5:44.57 | 241752 | 267608
14 | 59:28.09 | 4:18.47 | 267609 | 287005
15 | 63:46.56 | 5:29.21 | 287006 | 311701

Range status and errors

Selected range Filename C:\musjk\Michelle Shocked - Deep Natural.wav Peak level 99.8 %
Range quality 99.9 %
Test CRC 8789251E
Copy CRC 8789251E
Copy OK

No errors occurred


AccurateRip summary

Track 1 accurately ripped (confidence 12) [203740DE]
Track 2 accurately ripped (confidence 13) [F9B2798D]
Track 3 accurately ripped (confidence 13) [4D8F1386]
Track 4 accurately ripped (confidence 13) [D619A7E3]
Track 5 accurately ripped (confidence 13) 33548A0
Track 6 accurately ripped (confidence 13) [75818D7F]
Track 7 accurately ripped (confidence 13) [6C5C1AE6]
Track 8 accurately ripped (confidence 13) 1C4950D
Track 9 accurately ripped (confidence 13) [09DEBFE3]
Track 10 accurately ripped (confidence 13) [8404AA0A]
Track 11 accurately ripped (confidence 13) [5C69A075]
Track 12 accurately ripped (confidence 13) [1DAA4209]
Track 13 accurately ripped (confidence 13) [A69A611A]
Track 14 accurately ripped (confidence 13) [3E4DA2E5]
Track 15 accurately ripped (confidence 12) [19D3F3D6]

All tracks accurately ripped

End of status report
----------

Exact Audio Copy V0.99 prebeta 5 from 4. May 2009

EAC extraction logfile from 15. August 2009, 9:30

Michelle Shocked / Dub Natural

Used drive : HL-DT-STDVDRAM GH20NS15 Adapter: 2 ID: 0

Read mode : Secure
Utilize accurate stream : Yes
Defeat audio cache : Yes
Make use of C2 pointers : No

Read offset correction

: 667
Overread into Lead-In and Lead-Out : No
Fill up missing offset samples with silence : Yes
Delete leading and trailing silent blocks : No
Null samples used in CRC calculations : Yes
Used interface
: Native Win32 interface for Win NT & 2000

Used output format : Internal WAV Routines
Sample format : 44.100 Hz; 16 Bit; Stereo

TOC of the extracted CD Track | Start | Length | Start sector | End sector
-----------1 | 0:00.00 | 0:58.38 | 0 | 4387 2 | 0:58.38 | 4:42.35 | 4388 | 25572 3 | 5:40.73 | 3:14.65 | 25573 | 40187 4 | 8:55.63 | 0:58.49 | 40188 | 44586 5 | 9:54.37 | 5:28.67 | 44587 | 69253 6 | 15:23.29 | 3:48.44 | 69254 | 86397 7 | 19:11.73 | 3:47.48 | 86398 | 103470 8 | 22:59.46 | 5:27.08 | 103471 | 128003 9 | 28:26.54 | 4:06.47 | 128004 | 146500
10 | 32:33.26 | 4:58.24 | 146501 | 168874
11 | 37:31.50 | 5:25.42 | 168875 | 193291
12 | 42:57.17 | 5:58.49 | 193292 | 220190
13 | 48:55.66 | 0:48.20 | 220191 | 223810

Range status and errors

Selected range Filename C:\musjk\Michelle Shocked - Dub Natural.wav Peak level 99.9 %
Range quality 100.0 %
Test CRC 46A4A6F4
Copy CRC 46A4A6F4
Copy OK

No errors occurred


AccurateRip summary

Track 1 accurately ripped (confidence 12) [0025163E]
Track 2 accurately ripped (confidence 12) [472C7438]
Track 3 accurately ripped (confidence 12) [EEA3E221]
Track 4 accurately ripped (confidence 12) [54717921]
Track 5 accurately ripped (confidence 12) [D19E5101]
Track 6 accurately ripped (confidence 12) [6F2DF3F9]
Track 7 accurately ripped (confidence 12) [5D7F31D0]
Track 8 accurately ripped (confidence 12) [99CFB986]
Track 9 accurately ripped (confidence 12) [E42C0756]
Track 10 accurately ripped (confidence 12) [15313C36]
Track 11 accurately ripped (confidence 12) [EEE27687]
Track 12 accurately ripped (confidence 12) [40DD608A]
Track 13 accurately ripped (confidence 12) [48D9BBA1]

All tracks accurately ripped

End of status report

[CUETools log; Date: 2015.04.13. 9:54:47; Version: 2.1.4]
[CTDB TOCID: R7TwLpg6kdAmyX_Vn_9inAh7YBQ-] found.
Track | CTDB Status
1 | (11/11) Accurately ripped
2 | (11/11) Accurately ripped
3 | (11/11) Accurately ripped
4 | (11/11) Accurately ripped
5 | (11/11) Accurately ripped
6 | (11/11) Accurately ripped
7 | (11/11) Accurately ripped
8 | (11/11) Accurately ripped
9 | (11/11) Accurately ripped
10 | (11/11) Accurately ripped
11 | (11/11) Accurately ripped
12 | (11/11) Accurately ripped
13 | (11/11) Accurately ripped
14 | (11/11) Accurately ripped
15 | (11/11) Accurately ripped
[AccurateRip ID: 00234892-019c49e2-d4103c0f] found.
Track [ CRC | V2 ] Status
01 [203740de|a99a10b8] (24+17/41) Accurately ripped
02 [f9b2798d|6caf0465] (24+17/41) Accurately ripped
03 [4d8f1386|cfa07519] (24+17/41) Accurately ripped
04 [d619a7e3|a9db95dc] (24+17/41) Accurately ripped
05 33548a0|10943009 (24+17/41) Accurately ripped
06 [75818d7f|6a5f2b74] (24+17/41) Accurately ripped
07 [6c5c1ae6|3f9aa41f] (24+16/40) Accurately ripped
08 1c4950d|550a584b (24+17/41) Accurately ripped
09 [09debfe3|371c0f8f] (24+17/41) Accurately ripped
10 [8404aa0a|c2267800] (24+17/41) Accurately ripped
11 [5c69a075|6c806db3] (24+17/41) Accurately ripped
12 [1daa4209|a86a1768] (24+17/41) Accurately ripped
13 [a69a611a|93519ddc] (24+16/40) Accurately ripped
14 [3e4da2e5|3467c4e9] (24+17/41) Accurately ripped
15 [19d3f3d6|7d64efe1] (23+17/40) Accurately ripped

Track Peak [ CRC32 ] [W/O NULL] [ LOG ]
-- 99,8 [8789251E] [9B42E521] CRC32
01 82,0 [61126656] [6B08731A]
02 88,2 [F2E35747] [C8507912]
03 99,8 [33A15908] [703853EB]
04 70,7 [48CE7A56] [506A6880]
05 99,8 [57744E85] [61EED2F1]
06 99,8 [5A9ADBF4] 3D694CF
07 90,7 [CDE9983D] [A3B85EB0]
08 99,8 [15A64896] [C5396425]
09 99,8 [18DFED66] [FCD481BF]
10 95,0 [9EE3C207] [FD87EF4E]
11 99,8 [ACC13EA9] [0FF99FAD]
12 94,9 [0E334EBD] [179E66ED]
13 99,8 [4AAA65F5] [FD0509CF]
14 99,8 [C28D8476] [0EFDCCA1]
15 99,8 [AAA4C82B] [9FF0512B]

-------
[CUETools log; Date: 2015.04.13. 9:54:27; Version: 2.1.4]
[CTDB TOCID: ctAQV71RBIjmJI86XPXPM.OCD9I-] found.
Track | CTDB Status
1 | (12/12) Accurately ripped
2 | (12/12) Accurately ripped
3 | (12/12) Accurately ripped
4 | (12/12) Accurately ripped
5 | (12/12) Accurately ripped
6 | (12/12) Accurately ripped
7 | (12/12) Accurately ripped
8 | (12/12) Accurately ripped
9 | (12/12) Accurately ripped
10 | (12/12) Accurately ripped
11 | (11/12) Accurately ripped
12 | (12/12) Accurately ripped
13 | (12/12) Accurately ripped
[AccurateRip ID: 001631c5-00e684c9-b70ba80d] found.
Track [ CRC | V2 ] Status
01 [0025163e|077838b6] (24+16/40) Accurately ripped
02 [472c7438|ad81f084] (24+16/40) Accurately ripped
03 [eea3e221|4eaf57cc] (24+16/40) Accurately ripped
04 [54717921|2e5f4732] (24+16/40) Accurately ripped
05 [d19e5101|e835a005] (24+16/40) Accurately ripped
06 [6f2df3f9|2513d9ee] (24+16/40) Accurately ripped
07 [5d7f31d0|06fda4e8] (24+16/40) Accurately ripped
08 [99cfb986|df76d138] (24+16/40) Accurately ripped
09 [e42c0756|6711b6c0] (24+16/40) Accurately ripped
10 [15313c36|46a543e5] (24+16/40) Accurately ripped
11 [eee27687|2f06880d] (24+16/40) Accurately ripped
12 [40dd608a|e3dd8121] (23+15/38) Accurately ripped
13 [48d9bba1|a9529259] (24+16/40) Accurately ripped

Track Peak [ CRC32 ] [W/O NULL] [ LOG ]
-- 99,9 [46A4A6F4] [45BA823F] CRC32
01 41,0 [1BF921B9] [79148E0B]
02 99,9 [0DE14A52] [356A5AED]
03 99,9 [F656F324] [E0C9A0B4]
04 78,4 [AC83F138] [050DE62B]
05 99,9 0151C2E [9E85DBD2]
06 99,9 [553247A0] [49D0FC9E]
07 99,8 [93DFA3A5] [16E497DF]
08 99,9 [5DC2026B] [62E1C8B1]
09 99,9 [8DEB1154] [6AA89930]
10 99,9 [DCFA6E90] [ACD6A925]
11 99,9 [0586BD9F] [15818076]
12 99,9 [EA87D496] [F9938317]
13 33,7 [774DD7B0] [50C68A0E]

original uploader unknown, found in my archive
DOWNLOAD LINKS:
Buy Premium To Support Me & Get Resumable Support & Max Speed


Links are Interchangeable - No Password - Single Extraction
Direct Download

Tags: Michelle, Shocked, Natural, Natural

Comments
Name:*
E-Mail:*
Add Comments:
Enter Code: *