Download Now

Pretenders - Last of The Independents (1994) [2015, Edsel EDSG 8051]

Pretenders - Last of The Independents (1994)
EAC | Flac(Image) + Cue + Log & MP3 CBR 320Kbps
2CD | Edsel EDSG 8051 | ~ 690 or 227 Mb | Scans(600dpi, jpg) -> 54 Mb
Alternative Rock

"Chrissie Hynde rebounds from the directionless Packed! with Last of the Independents, a tough album that proves she can mature without losing her edge. Most of the record crackles with the lean power of Learning to Crawl, occasionally stopping for a lushly produced number recalling Get Close..."


Tracklist CD1:

Last of The Independents:
01. Hollywood Perfume - 3:56
02. Night In My Veins - 3:16
03. Money Talk - 3:40
04. 977 - 3:54
05. Revolution - 4:33
06. All My Dreams - 3:14
07. I'll Stand By You - 3:59
08. I'm A Mother - 5:18
09. Tequila - 1:04
10. Every Mothers Son - 3:36
11. Rebel Rock Me - 3:08
12. Love Colours - 4:33
13. Forever Young - 5:04

Exact Audio Copy V1.0 beta 4 from 7. December 2014

EAC extraction logfile from 23. March 2015, 18:10

Pretenders / Last of The Independents CD1 (2015, 2CD+DVD, EDSG 8051)

Used drive : ATAPI iHAS124 B Adapter: 1 ID: 0

Read mode : Secure
Utilize accurate stream : Yes
Defeat audio cache : Yes
Make use of C2 pointers : No

Read offset correction

: 6
Overread into Lead-In and Lead-Out : No
Fill up missing offset samples with silence : Yes
Delete leading and trailing silent blocks : No
Null samples used in CRC calculations : Yes
Used interface
: Installed external ASPI interface

Used output format : User Defined Encoder
Selected bitrate : 128 kBit/s
Quality : High
Add ID3 tag : Yes
Command line compressor : C:\Program Files (x86)\Exact Audio Copy\Flac\flac.exe
Additional command line options : -V -8 -T "Date=%year%" -T "Genre=%genre%" %source%

TOC of the extracted CD Track | Start | Length | Start sector | End sector
-----------1 | 0:00.00 | 3:55.45 | 0 | 17669 2 | 3:55.45 | 3:16.14 | 17670 | 32383 3 | 7:11.59 | 3:39.62 | 32384 | 48870 4 | 10:51.46 | 3:53.52 | 48871 | 66397 5 | 14:45.23 | 4:32.50 | 66398 | 86847 6 | 19:17.73 | 3:14.10 | 86848 | 101407 7 | 22:32.08 | 3:58.47 | 101408 | 119304 8 | 26:30.55 | 5:17.58 | 119305 | 143137 9 | 31:48.38 | 1:04.15 | 143138 | 147952
10 | 32:52.53 | 3:35.70 | 147953 | 164147
11 | 36:28.48 | 3:07.73 | 164148 | 178245
12 | 39:36.46 | 4:32.62 | 178246 | 198707
13 | 44:09.33 | 5:04.06 | 198708 | 221513

Range status and errors

Selected range Filename G:\CD\Pretenders - Last of The Independents CD1.wav Peak level 100.0 %
Extraction speed 5.5 X
Range quality 100.0 %
Test CRC 1E78D7D2
Copy CRC 1E78D7D2
Copy OK

No errors occurred


AccurateRip summary

Track 1 not present in database
Track 2 not present in database
Track 3 not present in database
Track 4 not present in database
Track 5 not present in database
Track 6 not present in database
Track 7 not present in database
Track 8 not present in database
Track 9 not present in database
Track 10 not present in database
Track 11 not present in database
Track 12 not present in database
Track 13 not present in database

None of the tracks are present in the AccurateRip database

End of status report

---- CUETools DB Plugin V2.1.4

[CTDB TOCID: jkzTCu3HpP_xcm9JdkycpMSUEgY-] found
Submit result: jkzTCu3HpP_xcm9JdkycpMSUEgY- has been confirmed
Track | CTDB Status
1 | (2/2) Accurately ripped
2 | (2/2) Accurately ripped
3 | (2/2) Accurately ripped
4 | (2/2) Accurately ripped
5 | (2/2) Accurately ripped
6 | (2/2) Accurately ripped
7 | (2/2) Accurately ripped
8 | (2/2) Accurately ripped
9 | (2/2) Accurately ripped
10 | (2/2) Accurately ripped
11 | (2/2) Accurately ripped
12 | (2/2) Accurately ripped
13 | (2/2) Accurately ripped

==== Log checksum F3FF4F0E0F24DE7407CCDDF974AC68B1A8D3F0562D9B515C56CCD2AFD32FDB0D ====

foobar2000 1.2.9 / Dynamic Range Meter 1.1.1
log date: 2015-04-14 14:13:13

--
Analyzed: Pretenders / Last of The Independents CD1 (2015, 2CD+DVD, EDSG 8051)
--

DR Peak RMS Duration Track
--
DR10 -0.27 dB -11.58 dB 3:56 01-Hollywood Perfume
DR8 -2.00 dB -11.48 dB 3:16 02-Night In My Veins
DR7 -1.09 dB -9.72 dB 3:40 03-Money Talk
DR8 -0.35 dB -10.55 dB 3:54 04-977
DR10 0.00 dB -11.65 dB 4:33 05-Revolution
DR7 -1.40 dB -10.05 dB 3:14 06-All My Dreams
DR8 -0.24 dB -10.55 dB 3:59 07-I'll Stand By You
DR7 -0.35 dB -9.22 dB 5:18 08-I'm A Mother
DR9 -0.20 dB -12.81 dB 1:04 09-Tequila
DR8 -0.20 dB -9.87 dB 3:36 10-Every Mothers Son
DR8 -1.18 dB -10.10 dB 3:08 11-Rebel Rock Me
DR9 -0.60 dB -11.06 dB 4:33 12-Love Colours
DR9 0.00 dB -11.68 dB 5:04 13-Forever Young
--

Number of tracks: 13
Official DR value: DR8

Samplerate: 44100 Hz
Channels: 2
Bits per sample: 16
Bitrate: 960 kbps
Codec: FLAC

[CUETools log; Date: 14.04.2015 14:13:21; Version: 2.1.4]
[CTDB TOCID: jkzTCu3HpP_xcm9JdkycpMSUEgY-] found.
Track | CTDB Status
1 | (5/5) Accurately ripped
2 | (5/5) Accurately ripped
3 | (5/5) Accurately ripped
4 | (5/5) Accurately ripped
5 | (5/5) Accurately ripped
6 | (5/5) Accurately ripped
7 | (5/5) Accurately ripped
8 | (5/5) Accurately ripped
9 | (5/5) Accurately ripped
10 | (5/5) Accurately ripped
11 | (5/5) Accurately ripped
12 | (5/5) Accurately ripped
13 | (5/5) Accurately ripped
[AccurateRip ID: 00174b3f-00e89377-b90b890d] found.
Track [ CRC | V2 ] Status
01 [883d148b|18d19299] (0+1/1) Accurately ripped
02 [254dcd82|eb943951] (0+1/1) Accurately ripped
03 [7f0b3d38|07f8a941] (0+1/1) Accurately ripped
04 [99cfbb67|b060fa92] (0+1/1) Accurately ripped
05 [62c77a40|9593b90e] (0+1/1) Accurately ripped
06 [f69e5710|66721daf] (0+1/1) Accurately ripped
07 [2675645d|acfde30a] (0+1/1) Accurately ripped
08 a023aac|b72fd83a (0+1/1) Accurately ripped
09 [3ad5e580|cfb84f8a] (0+1/1) Accurately ripped
10 [93847742|033a2bf3] (0+1/1) Accurately ripped
11 [3185b611|caf6da66] (0+1/1) Accurately ripped
12 [3162b323|28d2edd7] (0+1/1) Accurately ripped
13 [d13828c5|205ed7d6] (0+1/1) Accurately ripped

Track Peak [ CRC32 ] [W/O NULL] [ LOG ]
-- 100,0 [1E78D7D2] [18A10853] CRC32
01 96,9 [D4614C90] [35B0C80C]
02 79,4 [E2CCA659] [F37D1D92]
03 88,1 [5D5E2D97] [DE3AB88A]
04 96,0 [033FDC2C] [5B98D466]
05 100,0 [63954F70] [AAB9CFB8]
06 85,1 [9E87911C] [6999B3CA]
07 97,2 FF2B291 [F6C08CFE]
08 96,0 [EBC0DF2B] [E9AC7BAD]
09 97,7 [A6A4A120] DB3EB01
10 97,7 [C83080A3] [E84DDBD4]
11 87,3 [A68D76F9] [854600BA]
12 93,3 [51F56517] [D3F3D17A]
13 100,0 [5551D3A1] [1637150B]

Pretenders - Last of The Independents (1994) [2015, Edsel EDSG 8051]

Tracklist CD2:

B-sides...Plus:
01. Angel Of The Morning - 4:07
02. Bold As Love - 3:25
03. Hollywood Perfume (Live) - 4:13
04. Kid (Live) - 3:57
05. I'll Stand By You (Live) - 4:04
06. Back On The Chain Gang (Live at Glastonbury) - 4:20
07. Night In My Veins (Live at Glastonbury) - 3:41
08. Precious (Live at Glastonbury) - 4:27

Bonus Tracks :
09. Angel Of The Morning (Original Version) - 3:32
10. Every Mothers Son (Demo) - 3:47

Songs For Soundtracks:
11. I'm Not In Love (from 'Indecent Proposal') - 3:51
12. Every Day Is Like Sunday (from 'Boys On The Side') - 3:39

Exact Audio Copy V1.0 beta 4 from 7. December 2014

EAC extraction logfile from 23. March 2015, 18:27

Pretenders / Last of The Independents CD2 (2015, 2CD+DVD, EDSG 8051)

Used drive : ATAPI iHAS124 B Adapter: 1 ID: 0

Read mode : Secure
Utilize accurate stream : Yes
Defeat audio cache : Yes
Make use of C2 pointers : No

Read offset correction

: 6
Overread into Lead-In and Lead-Out : No
Fill up missing offset samples with silence : Yes
Delete leading and trailing silent blocks : No
Null samples used in CRC calculations : Yes
Used interface
: Installed external ASPI interface

Used output format : User Defined Encoder
Selected bitrate : 128 kBit/s
Quality : High
Add ID3 tag : Yes
Command line compressor : C:\Program Files (x86)\Exact Audio Copy\Flac\flac.exe
Additional command line options : -V -8 -T "Date=%year%" -T "Genre=%genre%" %source%

TOC of the extracted CD Track | Start | Length | Start sector | End sector
-----------1 | 0:00.00 | 4:06.51 | 0 | 18500 2 | 4:06.51 | 3:24.71 | 18501 | 33871 3 | 7:31.47 | 4:13.10 | 33872 | 52856 4 | 11:44.57 | 3:56.73 | 52857 | 70629 5 | 15:41.55 | 4:04.08 | 70630 | 88937 6 | 19:45.63 | 4:19.40 | 88938 | 108402 7 | 24:05.28 | 3:40.67 | 108403 | 124969 8 | 27:46.20 | 4:26.62 | 124970 | 144981 9 | 32:13.07 | 3:31.38 | 144982 | 160844
10 | 35:44.45 | 3:46.55 | 160845 | 177849
11 | 39:31.25 | 3:51.27 | 177850 | 195201
12 | 43:22.52 | 3:38.54 | 195202 | 211605

Range status and errors

Selected range Filename G:\CD\Pretenders - Last of The Independents CD2.wav Peak level 100.0 %
Extraction speed 5.4 X
Range quality 100.0 %
Test CRC D3EF86FD
Copy CRC D3EF86FD
Copy OK

No errors occurred


AccurateRip summary

Track 1 not present in database
Track 2 not present in database
Track 3 not present in database
Track 4 not present in database
Track 5 not present in database
Track 6 not present in database
Track 7 not present in database
Track 8 not present in database
Track 9 not present in database
Track 10 not present in database
Track 11 not present in database
Track 12 not present in database

None of the tracks are present in the AccurateRip database

End of status report

---- CUETools DB Plugin V2.1.4

[CTDB TOCID: 7JONEyEIRCzlN4JqeTZqk9swMI8-] disk not present in database
Submit result: 7JONEyEIRCzlN4JqeTZqk9swMI8- has been uploaded

==== Log checksum 772C877DD0988C6275450362FA8D9EB51AC6657FA94C398ADA072229BA47784D ====

foobar2000 1.2.9 / Dynamic Range Meter 1.1.1
log date: 2015-04-14 14:13:33

--
Analyzed: Pretenders / Last of The Independents CD2 (2015, 2CD+DVD, EDSG 8051)
--

DR Peak RMS Duration Track
--
DR9 -0.20 dB -11.77 dB 4:07 01-Angel Of The Morning
DR6 -0.50 dB -9.48 dB 3:25 02-Bold As Love
DR7 0.00 dB -9.26 dB 4:13 03-Hollywood Perfume (Live)
DR8 0.00 dB -8.99 dB 3:57 04-Kid (Live)
DR7 0.00 dB -9.31 dB 4:04 05-I'll Stand By You (Live)
DR8 0.00 dB -9.37 dB 4:20 06-Back On The Chain Gang (Live at Glastonbury)
DR8 -0.50 dB -10.37 dB 3:41 07-Night In My Veins (Live at Glastonbury)
DR9 -0.50 dB -11.33 dB 4:27 08-Precious (Live at Glastonbury)
DR9 0.00 dB -11.67 dB 3:32 09-Angel Of The Morning (Original Version)
DR11 -0.50 dB -14.22 dB 3:47 10-Every Mothers Son (Demo)
DR9 -0.50 dB -11.18 dB 3:51 11-I'm Not In Love (from 'Indecent Proposal')
DR8 0.00 dB -9.95 dB 3:39 12-Every Day Is Like Sunday (from 'Boys On The Side')
--

Number of tracks: 12
Official DR value: DR8

Samplerate: 44100 Hz
Channels: 2
Bits per sample: 16
Bitrate: 987 kbps
Codec: FLAC

[CUETools log; Date: 14.04.2015 14:13:37; Version: 2.1.4]
[CTDB TOCID: 7JONEyEIRCzlN4JqeTZqk9swMI8-] found.
Track | CTDB Status
1 | (3/3) Accurately ripped
2 | (3/3) Accurately ripped
3 | (3/3) Accurately ripped
4 | (3/3) Accurately ripped
5 | (3/3) Accurately ripped
6 | (3/3) Accurately ripped
7 | (3/3) Accurately ripped
8 | (3/3) Accurately ripped
9 | (3/3) Accurately ripped
10 | (3/3) Accurately ripped
11 | (3/3) Accurately ripped
12 | (3/3) Accurately ripped
[AccurateRip ID: 00153070-00c5ba8a-a90b050c] found.
Track [ CRC | V2 ] Status
01 [68da94ac|6bb516bc] (0+1/1) Accurately ripped
02 [f0f50dd9|e7ceba3b] (0+1/1) Accurately ripped
03 [160ea04c|937a5c14] (0+1/1) Accurately ripped
04 [7c8c8366|0a27900c] (0+1/1) Accurately ripped
05 [11f7414e|db228765] (0+1/1) Accurately ripped
06 f66566f|c45e05d2 (0+1/1) Accurately ripped
07 [d39b66e3|bc7d7186] (0+1/1) Accurately ripped
08 [c79cb112|8bf6d119] (0+1/1) Accurately ripped
09 [93491451|e7afb46f] (0+1/1) Accurately ripped
10 [1196a64f|e7815df2] (0+1/1) Accurately ripped
11 [ebe2c8ec|cf38f489] (0+1/1) Accurately ripped
12 [8c4c5e8c|81d2674a] (0+1/1) Accurately ripped

Track Peak [ CRC32 ] [W/O NULL] [ LOG ]
-- 100,0 [D3EF86FD] [79955E8F] CRC32
01 97,7 [99BAE470] D98B8D6
02 94,4 [9F8694C2] [609921ED]
03 100,0 [D525A47F] [94959D98]
04 100,0 [89F492B4] [4C756A19]
05 100,0 [440EE5D4] [470CB7B3]
06 100,0 [553313A4] [7F1F4652]
07 94,4 [A57631D0] [8DFFECD6]
08 94,4 [E5C8D212] [F7D2D747]
09 100,0 [A62CB37A] [F471C02B]
10 94,4 [603FC26C] [A135E26E]
11 94,4 [685984D9] [2A1A4D2D]
12 100,0 [C30399EC] [E7BCAA4E]

Pretenders - Last of The Independents (1994) [2015, Edsel EDSG 8051]

DOWNLOAD LINKS:
Buy Premium To Support Me & Get Resumable Support & Max Speed


Links are Interchangeable - No Password - Single Extraction
Direct Download

Tags: Pretenders, Independents

Comments
Name:*
E-Mail:*
Add Comments:
Enter Code: *