Download Now

V.A. - Pink Floyd: Greatest Hits Covered (2010) 2CD

V.A. - Pink Floyd: Greatest Hits Covered (2010) 2CD
EAC Rip | FLAC: Tracks+Cue+Log | 990 Mb | MP3 CBR 320 kbps | 359 Mb | Scans | TTime: 02:30:51
Genre: Progressive Rock, Psychedelic Rock, Tribute | Label: Redline/Cherry Red Records | Cat.№: REDLINE45

"A 2CD set with 30 songs lasting over 2 hours of Prog and Rock's biggest stars reconstructing Pink Floyd's epic masterpieces. The influence of Pink Floyd upon modern rock music simply cannot be overestimated. Pink Floyd have inspired a diverse group of artists and we now bring you the best of their versions of classic Pink Floyd songs with such artists as: Adrian Belew (King Crimson), Alan White (Yes), Billy Sherwood (Yes), Keith Emerson (ELP), Vinyl Clarita, Controlled Bleeding, Alien Sex Fiend, John Wetton (Asia), Steve Lukather (Toto), Tommy Shaw (Styx), Dweezil Zappa...and many many more!"



Disc 1

01. Adrian Belew & Billy Sherwood - Is There Anybody Out There? (02:39)
02. Adrian Belew, Alan White & Keith Emerson - In The Flesh (03:19)
03. Vinyl Clarita & Billy Sherwood - The Happiest Days Of Our Lives (01:43)
04. Controlled Bleeding - Another Brick In The Wall (Part I & II) (09:27)
05. Alien Sex Fiend - Echoes (07:32)
06. John Wetton, Steve Lukather & Tommy Shaw - Hey You (04:42)
07. Dweezil Zappa & Tony Kaye - Run Like Hell (05:09)
08. Billy Sherwood, Keith Emerson & Jim Ladd - Waiting For The Worms (03:59)
09. Psychic TV - Set The Controls For The Heart Of The Sun (08:56)
10. Tommy Shaw - Money (06:03)
11. Ian Anderson, Tony Levin & Gary Green - The Thin Ice (02:29)
12. John Wetton, Adrian Below & Alan White - Mother (05:58)
13. Robby Krieger - Empty Spaces (02:08)
14. Tommy Shaw, Robby Krieger & Geoff Downes - Don't Leave Me Now (04:08)
15. Din - On The Run (07:52)

Disc 2

01. Steve Luather & Marco Mendoza - Shine On You Crazy Diamond (06:48)
02. Steve Howe - Goodbye Blue Sky (02:44)
03. Chris Squire & Alan White - Comfortably Numb (06:51)
04. Glenn Hughes & Elliot Easton - Young Lust (04:18)
05. Spahn Ranch - One Of These Days (04:45)
06. Out Of Phase - Us And Them (06:16)
07. Leather Strip - Learning To Fly (05:03)
08. Tommy Shaw & Steve Howe - Vera (01:22)
09. Eden - Jugband Blues (05:12)
10. Tommy Shaw & Larry Fast - One Of My Turns (03:35)
11. Nik Turner - Careful With That Axe Eugene (08:34)
12. Malcolm McDowell - The Trial (05:20)
13. Fee Waybill, Ronnie Montrose, Mike Porcaro, Greg Bissonette & Billy Sherwood - Another Brick In The Wall Part II (House Remix) (05:19)
14. Fee Waybill, Ronnie Montrose, Mike Porcaro, Greg Bissonette & Billy Sherwood - Another Brick In The Wall Part II (Radio Remix) (03:43)
15. Fee Waybill, Ronnie Montrose, Mike Porcaro, Greg Bissonette & Billy Sherwood - Another Brick In The Wall Part II (Dub Remix) (04:43)

Notes

℗ 1995-2006 Hypnotic/Purple Pyramid/Cleopatra/Tributized. © Redline Records 2010 a division of Cherry Red Records ltd.
Licensed from Cleopatra Records. Write for a full label catalogue to Cherry Red Records.
Power Road Studios, 114 Power Road, Chiswick, London W4 5PY.

V.A. - Pink Floyd: Greatest Hits Covered (2010) 2CD



Exact Audio Copy V1.0 beta 3 from 29. August 2011

EAC extraction logfile from 24. February 2012, 10:01

Various Artists / Pink Floyd Greatest Hits Covered [cd1] [Redline]

Used drive : DVDRW SATA 20X20X12X Adapter: 5 ID: 0

Read mode : Secure
Utilize accurate stream : Yes
Defeat audio cache : Yes
Make use of C2 pointers : No

Read offset correction

: 6
Overread into Lead-In and Lead-Out : No
Fill up missing offset samples with silence : Yes
Delete leading and trailing silent blocks : No
Null samples used in CRC calculations : Yes
Used interface
: Native Win32 interface for Win NT & 2000
Gap handling
: Appended to previous track

Used output format : User Defined Encoder
Selected bitrate : 1024 kBit/s
Quality : High
Add ID3 tag : No
Command line compressor : C:\Program Files (x86)\Exact Audio Copy\FLAC\FLAC.EXE
Additional command line options : -8 -V -T "ARTIST=%artist%" -T "TITLE=%title%" -T "ALBUM=%albumtitle%" -T "DATE=%year%" -T "TRACKNUMBER=%tracknr%" -T "GENRE=%genre%" -T "PERFORMER=%albuminterpret%" -T "COMPOSER=%composer%" %haslyrics%--tag-from-file=LYRICS="%lyricsfile%"%haslyrics% -T "ALBUMARTIST=%albumartist%" -T "ALBUM ARTIST=%albumartist%" -T "DISCNUMBER=%cdnumber%" -T "TOTALDISCS=%totalcds%" -T "TOTALTRACKS=%numtracks%" -T "COMMENT=EAC V1.0 beta 2, Secure Mode, Test & Copy, AccurateRip, FLAC -8" %source% -o %dest%

TOC of the extracted CD Track | Start | Length | Start sector | End sector
-----------1 | 0:00.00 | 2:39.21 | 0 | 11945 2 | 2:39.21 | 3:19.30 | 11946 | 26900 3 | 5:58.51 | 1:43.07 | 26901 | 34632 4 | 7:41.58 | 9:27.16 | 34633 | 77173 5 | 17:08.74 | 7:32.59 | 77174 | 111132 6 | 24:41.58 | 4:42.68 | 111133 | 132350 7 | 29:24.51 | 5:09.07 | 132351 | 155532 8 | 34:33.58 | 3:59.19 | 155533 | 173476 9 | 38:33.02 | 8:56.49 | 173477 | 213725
10 | 47:29.51 | 6:03.18 | 213726 | 240968
11 | 53:32.69 | 2:29.47 | 240969 | 252190
12 | 56:02.41 | 5:58.38 | 252191 | 279078
13 | 62:01.04 | 2:08.20 | 279079 | 288698
14 | 64:09.24 | 4:08.54 | 288699 | 307352
15 | 68:18.03 | 7:52.70 | 307353 | 342822

Track 1 Filename E:\!_M_2012\FLAC\[VA] - Pink Floyd Greatest Hits Covered [cd1] [Redline] - [2010] [FLAC] {Rock}\01 - Adrian Belew and Billy Sherwood - Is There Anybody Out There.wav Pre-gap length 0:00:02.00 Peak level 99.9 %
Extraction speed 4.1 X
Track quality 100.0 %
Test CRC AF21A0FA
Copy CRC AF21A0FA
Accurately ripped (confidence 1) [27F9AB14] (AR v1)
Copy OK

Track 2 Filename E:\!_M_2012\FLAC\[VA] - Pink Floyd Greatest Hits Covered [cd1] [Redline] - [2010] [FLAC] {Rock}\02 - Adrian Belew Alan White and Keith Emerson - In The Flesh.wav Peak level 100.0 %
Extraction speed 4.6 X
Track quality 100.0 %
Test CRC 7CE25D57
Copy CRC 7CE25D57
Accurately ripped (confidence 1) [D04F522F] (AR v1)
Copy OK

Track 3 Filename E:\!_M_2012\FLAC\[VA] - Pink Floyd Greatest Hits Covered [cd1] [Redline] - [2010] [FLAC] {Rock}\03 - Vinyl Clarita and Billy Sherwood - The Happiest Days Of Our Lives.wav Peak level 100.0 %
Extraction speed 4.1 X
Track quality 100.0 %
Test CRC EAFD6661
Copy CRC EAFD6661
Accurately ripped (confidence 1) [69ECD062] (AR v1)
Copy OK

Track 4 Filename E:\!_M_2012\FLAC\[VA] - Pink Floyd Greatest Hits Covered [cd1] [Redline] - [2010] [FLAC] {Rock}\04 - Controlled Bleeding - Another Brick In The Wall Pt1 & 2.wav Peak level 100.0 %
Extraction speed 6.0 X
Track quality 100.0 %
Test CRC 66A32FEF
Copy CRC 66A32FEF
Cannot be verified as accurate (confidence 1) [4A535A9D], AccurateRip returned [FAC85A48] (AR v2)
Copy OK

Track 5 Filename E:\!_M_2012\FLAC\[VA] - Pink Floyd Greatest Hits Covered [cd1] [Redline] - [2010] [FLAC] {Rock}\05 - Alien Sex Friend - Echoes.wav Peak level 100.0 %
Extraction speed 6.6 X
Track quality 100.0 %
Test CRC 09096C0B
Copy CRC 09096C0B
Track not present in AccurateRip database
Copy OK

Track 6 Filename E:\!_M_2012\FLAC\[VA] - Pink Floyd Greatest Hits Covered [cd1] [Redline] - [2010] [FLAC] {Rock}\06 - John Wotton Steve Lukather and Tommy Shaw - Hey You.wav Peak level 100.0 %
Extraction speed 6.8 X
Track quality 100.0 %
Test CRC 29CC1D1E
Copy CRC 29CC1D1E
Track not present in AccurateRip database
Copy OK

Track 7 Filename E:\!_M_2012\FLAC\[VA] - Pink Floyd Greatest Hits Covered [cd1] [Redline] - [2010] [FLAC] {Rock}\07 - Dweezil Zappa and Tony Kaye - Run Like Hell.wav Peak level 100.0 %
Extraction speed 6.1 X
Track quality 99.9 %
Test CRC 99B05A27
Copy CRC 99B05A27
Track not present in AccurateRip database
Copy OK

Track 8 Filename E:\!_M_2012\FLAC\[VA] - Pink Floyd Greatest Hits Covered [cd1] [Redline] - [2010] [FLAC] {Rock}\08 - Billy Sherwood Keith Emerson and Jim Ladd - Waiting For The Worms.wav Peak level 100.0 %
Extraction speed 7.3 X
Track quality 100.0 %
Test CRC 2D9CB248
Copy CRC 2D9CB248
Track not present in AccurateRip database
Copy OK

Track 9 Filename E:\!_M_2012\FLAC\[VA] - Pink Floyd Greatest Hits Covered [cd1] [Redline] - [2010] [FLAC] {Rock}\09 - Psychic TV - Set The Controls For The Heart Of The Sun.wav Peak level 99.9 %
Extraction speed 8.2 X
Track quality 100.0 %
Test CRC 031A916F
Copy CRC 031A916F
Track not present in AccurateRip database
Copy OK

Track 10 Filename E:\!_M_2012\FLAC\[VA] - Pink Floyd Greatest Hits Covered [cd1] [Redline] - [2010] [FLAC] {Rock}\10 - Tommy Shaw - Money.wav Peak level 100.0 %
Extraction speed 8.2 X
Track quality 100.0 %
Test CRC AB61F540
Copy CRC AB61F540
Track not present in AccurateRip database
Copy OK

Track 11 Filename E:\!_M_2012\FLAC\[VA] - Pink Floyd Greatest Hits Covered [cd1] [Redline] - [2010] [FLAC] {Rock}\11 - Ian Anderson Tony Levin and Gary Green - The Thin Ice.wav Peak level 100.0 %
Extraction speed 7.7 X
Track quality 100.0 %
Test CRC A16DB05F
Copy CRC A16DB05F
Track not present in AccurateRip database
Copy OK

Track 12 Filename E:\!_M_2012\FLAC\[VA] - Pink Floyd Greatest Hits Covered [cd1] [Redline] - [2010] [FLAC] {Rock}\12 - John Wotton Adrian Below and Alan White - Mother.wav Peak level 100.0 %
Extraction speed 8.5 X
Track quality 100.0 %
Test CRC 3DC34679
Copy CRC 3DC34679
Track not present in AccurateRip database
Copy OK

Track 13 Filename E:\!_M_2012\FLAC\[VA] - Pink Floyd Greatest Hits Covered [cd1] [Redline] - [2010] [FLAC] {Rock}\13 - Robby Krieger - Empty Spaces.wav Peak level 99.9 %
Extraction speed 7.4 X
Track quality 100.0 %
Test CRC 874A393F
Copy CRC 874A393F
Track not present in AccurateRip database
Copy OK

Track 14 Filename E:\!_M_2012\FLAC\[VA] - Pink Floyd Greatest Hits Covered [cd1] [Redline] - [2010] [FLAC] {Rock}\14 - Tommy Shaw Robby Krieger and Geoff Downs - Don't Leave Me Now.wav Peak level 100.0 %
Extraction speed 8.8 X
Track quality 100.0 %
Test CRC 47AD3437
Copy CRC 47AD3437
Track not present in AccurateRip database
Copy OK

Track 15 Filename E:\!_M_2012\FLAC\[VA] - Pink Floyd Greatest Hits Covered [cd1] [Redline] - [2010] [FLAC] {Rock}\15 - Din - On The Run.wav Peak level 100.0 %
Extraction speed 9.6 X
Track quality 100.0 %
Test CRC 907ECB07
Copy CRC 907ECB07
Track not present in AccurateRip database
Copy OK

3 track(s) accurately ripped
1 track(s) could not be verified as accurate
11 track(s) not present in the AccurateRip database

Some tracks could not be verified as accurate

No errors occurred

End of status report

---- CUETools DB Plugin V2.1.3

[CTDB TOCID: FG.JOf_CCGA044.96UgHMna5VXQ-] disk not present in database, Submit result: FG.JOf_CCGA044.96UgHMna5VXQ- has been uploaded

==== Log checksum 0A5E07DCD9872F4886E106246FE00CC95C4666655BED8ABA2BBABB3D2D97313E ====

Exact Audio Copy V1.0 beta 3 from 29. August 2011

EAC extraction logfile from 24. February 2012, 11:50

Various Artists / Pink Floyd Greatest Hits Covered [cd2] [Redline]

Used drive : DVDRW SATA 20X20X12X Adapter: 5 ID: 0

Read mode : Secure
Utilize accurate stream : Yes
Defeat audio cache : Yes
Make use of C2 pointers : No

Read offset correction

: 6
Overread into Lead-In and Lead-Out : No
Fill up missing offset samples with silence : Yes
Delete leading and trailing silent blocks : No
Null samples used in CRC calculations : Yes
Used interface
: Native Win32 interface for Win NT & 2000
Gap handling
: Appended to previous track

Used output format : User Defined Encoder
Selected bitrate : 1024 kBit/s
Quality : High
Add ID3 tag : No
Command line compressor : C:\Program Files (x86)\Exact Audio Copy\FLAC\FLAC.EXE
Additional command line options : -8 -V -T "ARTIST=%artist%" -T "TITLE=%title%" -T "ALBUM=%albumtitle%" -T "DATE=%year%" -T "TRACKNUMBER=%tracknr%" -T "GENRE=%genre%" -T "PERFORMER=%albuminterpret%" -T "COMPOSER=%composer%" %haslyrics%--tag-from-file=LYRICS="%lyricsfile%"%haslyrics% -T "ALBUMARTIST=%albumartist%" -T "ALBUM ARTIST=%albumartist%" -T "DISCNUMBER=%cdnumber%" -T "TOTALDISCS=%totalcds%" -T "TOTALTRACKS=%numtracks%" -T "COMMENT=EAC V1.0 beta 2, Secure Mode, Test & Copy, AccurateRip, FLAC -8" %source% -o %dest%

TOC of the extracted CD Track | Start | Length | Start sector | End sector
-----------1 | 0:00.00 | 6:48.36 | 0 | 30635 2 | 6:48.36 | 2:44.29 | 30636 | 42964 3 | 9:32.65 | 6:51.41 | 42965 | 73830 4 | 16:24.31 | 4:18.43 | 73831 | 93223 5 | 20:42.74 | 4:45.59 | 93224 | 114657 6 | 25:28.58 | 6:16.47 | 114658 | 142904 7 | 31:45.30 | 5:02.73 | 142905 | 165627 8 | 36:48.28 | 1:22.49 | 165628 | 171826 9 | 38:11.02 | 5:12.68 | 171827 | 195294
10 | 43:23.70 | 3:35.08 | 195295 | 211427
11 | 46:59.03 | 8:34.62 | 211428 | 250039
12 | 55:33.65 | 5:19.72 | 250040 | 274036
13 | 60:53.62 | 5:19.65 | 274037 | 298026
14 | 66:13.52 | 3:43.63 | 298027 | 314814
15 | 69:57.40 | 4:43.21 | 314815 | 336060

Track 1 Filename E:\!_M_2012\FLAC\[VA] - Pink Floyd Greatest Hits Covered [cd2] [Redline] - [2010] [FLAC] {Rock}\01 - Steve Luather & Marco Mendoza - Shine On You Crazy Diamond.wav Pre-gap length 0:00:02.00 Peak level 100.0 %
Extraction speed 4.8 X
Track quality 100.0 %
Test CRC 95678C76
Copy CRC 95678C76
Track not present in AccurateRip database
Copy OK

Track 2 Filename E:\!_M_2012\FLAC\[VA] - Pink Floyd Greatest Hits Covered [cd2] [Redline] - [2010] [FLAC] {Rock}\02 - Steve Howe - Goodbye Blue Sky.wav Peak level 100.0 %
Extraction speed 4.8 X
Track quality 100.0 %
Test CRC F997AE51
Copy CRC F997AE51
Track not present in AccurateRip database
Copy OK

Track 3 Filename E:\!_M_2012\FLAC\[VA] - Pink Floyd Greatest Hits Covered [cd2] [Redline] - [2010] [FLAC] {Rock}\03 - Chris Squire and Alan White - Comfortably Numb.wav Peak level 100.0 %
Extraction speed 5.9 X
Track quality 100.0 %
Test CRC 77CE5722
Copy CRC 77CE5722
Track not present in AccurateRip database
Copy OK

Track 4 Filename E:\!_M_2012\FLAC\[VA] - Pink Floyd Greatest Hits Covered [cd2] [Redline] - [2010] [FLAC] {Rock}\04 - Glenn Hughes and Elliot Easton - Young Lust.wav Peak level 100.0 %
Extraction speed 6.1 X
Track quality 100.0 %
Test CRC 69B40819
Copy CRC 69B40819
Track not present in AccurateRip database
Copy OK

Track 5 Filename E:\!_M_2012\FLAC\[VA] - Pink Floyd Greatest Hits Covered [cd2] [Redline] - [2010] [FLAC] {Rock}\05 - Spahn Ranch - One Of These Days.wav Peak level 99.9 %
Extraction speed 6.5 X
Track quality 100.0 %
Test CRC 7B54C7A6
Copy CRC 7B54C7A6
Track not present in AccurateRip database
Copy OK

Track 6 Filename E:\!_M_2012\FLAC\[VA] - Pink Floyd Greatest Hits Covered [cd2] [Redline] - [2010] [FLAC] {Rock}\06 - Out Of Phase - Us and Them.wav Peak level 100.0 %
Extraction speed 7.1 X
Track quality 100.0 %
Test CRC 0790062A
Copy CRC 0790062A
Track not present in AccurateRip database
Copy OK

Track 7 Filename E:\!_M_2012\FLAC\[VA] - Pink Floyd Greatest Hits Covered [cd2] [Redline] - [2010] [FLAC] {Rock}\07 - Leather Strip - Learning To Fly.wav Peak level 100.0 %
Extraction speed 7.3 X
Track quality 100.0 %
Test CRC C5DE126A
Copy CRC C5DE126A
Track not present in AccurateRip database
Copy OK

Track 8 Filename E:\!_M_2012\FLAC\[VA] - Pink Floyd Greatest Hits Covered [cd2] [Redline] - [2010] [FLAC] {Rock}\08 - Tommy Shaw and Steve Howe - Vera.wav Peak level 100.0 %
Extraction speed 3.8 X
Track quality 99.8 %
Test CRC 75D02A54
Copy CRC 75D02A54
Track not present in AccurateRip database
Copy OK

Track 9 Filename E:\!_M_2012\FLAC\[VA] - Pink Floyd Greatest Hits Covered [cd2] [Redline] - [2010] [FLAC] {Rock}\09 - Eden - Jugband Blues.wav Peak level 100.0 %
Extraction speed 7.8 X
Track quality 100.0 %
Test CRC D5BA36B1
Copy CRC D5BA36B1
Track not present in AccurateRip database
Copy OK

Track 10 Filename E:\!_M_2012\FLAC\[VA] - Pink Floyd Greatest Hits Covered [cd2] [Redline] - [2010] [FLAC] {Rock}\10 - Tommy Shaw and Larry Fast - One Of My Turns.wav Peak level 99.9 %
Extraction speed 6.0 X
Track quality 99.9 %
Test CRC DEDB8790
Copy CRC DEDB8790
Track not present in AccurateRip database
Copy OK

Track 11 Filename E:\!_M_2012\FLAC\[VA] - Pink Floyd Greatest Hits Covered [cd2] [Redline] - [2010] [FLAC] {Rock}\11 - Nik Turner - Careful With That Axe Eugene.wav Peak level 99.9 %
Extraction speed 8.7 X
Track quality 100.0 %
Test CRC 72ABCC0B
Copy CRC 72ABCC0B
Track not present in AccurateRip database
Copy OK

Track 12 Filename E:\!_M_2012\FLAC\[VA] - Pink Floyd Greatest Hits Covered [cd2] [Redline] - [2010] [FLAC] {Rock}\12 - Malcolm McDowell - The Trial.wav Peak level 100.0 %
Extraction speed 8.8 X
Track quality 100.0 %
Test CRC DA413CBD
Copy CRC DA413CBD
Track not present in AccurateRip database
Copy OK

Track 13 Filename E:\!_M_2012\FLAC\[VA] - Pink Floyd Greatest Hits Covered [cd2] [Redline] - [2010] [FLAC] {Rock}\13 - Various Artists - Another Brick In The Wall Part 2 (House Remix).wav Peak level 99.9 %
Extraction speed 8.7 X
Track quality 100.0 %
Test CRC 701C57DF
Copy CRC 701C57DF
Track not present in AccurateRip database
Copy OK

Track 14 Filename E:\!_M_2012\FLAC\[VA] - Pink Floyd Greatest Hits Covered [cd2] [Redline] - [2010] [FLAC] {Rock}\14 - Various Artists - Another Brick In The Wall Part 2 (Radio Remix).wav Peak level 99.9 %
Extraction speed 8.8 X
Track quality 100.0 %
Test CRC D24860D9
Copy CRC D24860D9
Track not present in AccurateRip database
Copy OK

Track 15 Filename E:\!_M_2012\FLAC\[VA] - Pink Floyd Greatest Hits Covered [cd2] [Redline] - [2010] [FLAC] {Rock}\15 - Various Artists - Another Brick In The Wall Part 2 (Dub Remix).wav Peak level 100.0 %
Extraction speed 9.1 X
Track quality 100.0 %
Test CRC 9F20E5B3
Copy CRC 9F20E5B3
Track not present in AccurateRip database
Copy OK

None of the tracks are present in the AccurateRip database

No errors occurred

End of status report

---- CUETools DB Plugin V2.1.3

[CTDB TOCID: it3IaYn74CfV94mLEZq47yUx.oE-] disk not present in database, Submit result: it3IaYn74CfV94mLEZq47yUx.oE- has been uploaded

==== Log checksum 3CAC910042EB744028377C01636C7CDB4A14B6E74079D0CC55E90000287687B0 ====

Many thanks to the original uploader: xroomie
DOWNLOAD LINKS:
Buy Premium To Support Me & Get Resumable Support & Max Speed


Links are Interchangeable - No Password - Single Extraction
Direct Download

Tags: Greatest, Covered

Comments
Name:*
E-Mail:*
Add Comments:
Enter Code: *