Download Now

Dizzy Gillespie - The Greatest of Dizzy Gillespie (2003)
Artist: Dizzy Gillespie
Title Of Album: The Greatest of Dizzy Gillespie
Year Of Release: 2003
Label: BMG Music Ariola Hamburg GmbH
Genre: Bop, Afro-Cuban Jazz, Vocal Jazz
Quality: lossless
Bitrate: FLAC (tracks+.cue)
Total Time: 00:35:23
Total Size: 184.5 MB

Tracklist:
01. Manteca [0:03:10.00]
02. Dizzier And Dizzier [0:03:08.00]
03. Night In Tunisia (Interlude) [0:03:08.00]
04. Anthropology [0:02:41.12]
05. Ol' Man Rebop [0:02:48.13]
06. 52nd Street Theme [0:03:08.50]
07. Cubana Be [0:02:45.00]
08. Cubana Bop [0:03:11.37]
09. Swedish Suite [0:02:58.13]
10. Two Bass Hit [0:02:50.25]
11. Good Bait [0:02:49.62]
12. Minor Walk [0:02:44.13]

Dizzy Gillespie - The Greatest of Dizzy Gillespie (2003)
LOG

Exact Audio Copy V1.0 beta 4 from 7. December 2014

Отчёт EAC об извлечении, выполненном 5. апреля 2015, 14:30

Dizzy Gillespie And His Orchestra / The Greatest of Dizzy Gillespie

Дисковод: HL-DT-STDVDRAM GUA0N Adapter: 1 ID: 0

Режим чтения : Достоверность
Использование точного потока : Да
Отключение кэша аудио : Да
Использование указателей C2 : Нет

Коррекция смещения при чтении : 6
Способность читать области Lead-in и Lead-out : Нет
Заполнение пропущенных сэмплов тишиной : Да
Удаление блоков с тишиной в начале и конце : Нет
При вычислениях CRC использовались нулевые сэмплы : Да
Интерфейс : Встроенный Win32-интерфейс для Win NT/2000
Обработка зазоров : Добавлено к предыдущему треку

Выходной формат : Пользовательский кодировщик
Выбранный битрейт : 768 kBit/s
Качество : Высокий
Добавление ID3-тега : Нет
Утилита сжатия : C:\Program Files (x86)\Exact Audio Copy\FLAC\FLAC.EXE
Дополнительные параметры : -6 -V -T "ARTIST=%artist%" -T "TITLE=%title%" -T "ALBUM=%albumtitle%" -T "DATE=%year%" -T "TRACKNUMBER=%tracknr%" -T "GENRE=%genre%" -T "COMMENT=%comment%" -T "BAND=%albuminterpret%" -T "ALBUMARTIST=%albuminterpret%" -T "COMPOSER=%composer%" %haslyrics%--tag-from-file=LYRICS="%lyricsfile%"%haslyrics% -T "DISCNUMBER=%cdnumber%" -T "TOTALDISCS=%totalcds%" -T "TOTALTRACKS=%numtracks%" %hascover%--picture="%coverfile%"%hascover% %source% -o %dest%

TOC извлечённого CD

Трек | Старт | Длительность | Начальный сектор | Конечный сектор
---------------------------------------------------------------------
1 | 0:00.33 | 3:10.00 | 33 | 14282
2 | 3:10.33 | 3:08.00 | 14283 | 28382
3 | 6:18.33 | 3:08.00 | 28383 | 42482
4 | 9:26.33 | 2:41.12 | 42483 | 54569
5 | 12:07.45 | 2:48.13 | 54570 | 67182
6 | 14:55.58 | 3:08.50 | 67183 | 81332
7 | 18:04.33 | 2:45.00 | 81333 | 93707
8 | 20:49.33 | 3:11.37 | 93708 | 108069
9 | 24:00.70 | 2:58.13 | 108070 | 121432
10 | 26:59.08 | 2:50.25 | 121433 | 134207
11 | 29:49.33 | 2:49.62 | 134208 | 146944
12 | 32:39.20 | 2:44.13 | 146945 | 159257

Трек 1

Имя файла E:\EAC\01. Dizzy Gillespie And His Orchestra - Manteca.wav

Длина предзазора 0:00:02.33

Пиковый уровень 88.0 %
Скорость извлечения 1.1 X
Качество трека 100.0 %
CRC теста 1BF145B9
CRC копии 1BF145B9
Точное извлечение (достоверность 2) [3B60FA71] (AR v2)
Копирование... OK

Трек 2

Имя файла E:\EAC\02. Dizzy Gillespie And His Orchestra - Dizzier And Dizzier.wav

Длина предзазора 0:00:02.00

Пиковый уровень 82.3 %
Скорость извлечения 1.2 X
Качество трека 100.0 %
CRC теста B4FAD2E7
CRC копии B4FAD2E7
Точное извлечение (достоверность 2) [E5990F5E] (AR v2)
Копирование... OK

Трек 3

Имя файла E:\EAC\03. Dizzy Gillespie And His Orchestra - Night In Tunisia (Interlude).wav

Длина предзазора 0:00:02.00

Пиковый уровень 83.3 %
Скорость извлечения 1.3 X
Качество трека 100.0 %
CRC теста BB05C404
CRC копии BB05C404
Точное извлечение (достоверность 2) [AE0C9BF5] (AR v2)
Копирование... OK

Трек 4

Имя файла E:\EAC\04. Dizzy Gillespie And His Orchestra - Anthropology.wav

Длина предзазора 0:00:02.00

Пиковый уровень 74.3 %
Скорость извлечения 1.3 X
Качество трека 100.0 %
CRC теста CB48E112
CRC копии CB48E112
Точное извлечение (достоверность 2) [8BE779D0] (AR v2)
Копирование... OK

Трек 5

Имя файла E:\EAC\05. Dizzy Gillespie And His Orchestra - Ol' Man Rebop.wav

Длина предзазора 0:00:02.00

Пиковый уровень 66.6 %
Скорость извлечения 1.4 X
Качество трека 100.0 %
CRC теста 11E704E6
CRC копии 11E704E6
Точное извлечение (достоверность 2) [A6409DFA] (AR v2)
Копирование... OK

Трек 6

Имя файла E:\EAC\06. Dizzy Gillespie And His Orchestra - 52nd Street Theme.wav

Длина предзазора 0:00:02.00

Пиковый уровень 65.8 %
Скорость извлечения 1.5 X
Качество трека 100.0 %
CRC теста 76915E26
CRC копии 76915E26
Точное извлечение (достоверность 2) [02FC2D61] (AR v2)
Копирование... OK

Трек 7

Имя файла E:\EAC\07. Dizzy Gillespie And His Orchestra - Cubana Be.wav

Длина предзазора 0:00:02.00

Пиковый уровень 74.2 %
Скорость извлечения 1.3 X
Качество трека 99.9 %
CRC теста 94B2950B
CRC копии 94B2950B
Точное извлечение (достоверность 2) [E890ACA1] (AR v2)
Копирование... OK

Трек 8

Имя файла E:\EAC\08. Dizzy Gillespie And His Orchestra - Cubana Bop.wav

Длина предзазора 0:00:02.00

Пиковый уровень 77.4 %
Скорость извлечения 1.6 X
Качество трека 100.0 %
CRC теста 59C28887
CRC копии 59C28887
Точное извлечение (достоверность 2) [1FE6F6D5] (AR v2)
Копирование... OK

Трек 9

Имя файла E:\EAC\09. Dizzy Gillespie And His Orchestra - Swedish Suite.wav

Длина предзазора 0:00:02.00

Пиковый уровень 76.9 %
Скорость извлечения 1.6 X
Качество трека 100.0 %
CRC теста 8C13E787
CRC копии 8C13E787
Точное извлечение (достоверность 2) [CEDF43C4] (AR v2)
Копирование... OK

Трек 10

Имя файла E:\EAC\10. Dizzy Gillespie And His Orchestra - Two Bass Hit.wav

Длина предзазора 0:00:02.00

Пиковый уровень 75.9 %
Скорость извлечения 1.4 X
Качество трека 99.9 %
CRC теста 528CBA8D
CRC копии 528CBA8D
Точное извлечение (достоверность 2) [27C6FC6A] (AR v2)
Копирование... OK

Трек 11

Имя файла E:\EAC\11. Dizzy Gillespie And His Orchestra - Good Bait.wav

Длина предзазора 0:00:02.00

Пиковый уровень 63.5 %
Скорость извлечения 1.8 X
Качество трека 100.0 %
CRC теста 49BC1CFA
CRC копии 49BC1CFA
Точное извлечение (достоверность 2) [28765DDA] (AR v2)
Копирование... OK

Трек 12

Имя файла E:\EAC\12. Dizzy Gillespie And His Orchestra - Minor Walk.wav

Длина предзазора 0:00:02.00

Пиковый уровень 70.7 %
Скорость извлечения 1.8 X
Качество трека 100.0 %
CRC теста 4F4C8E5B
CRC копии 4F4C8E5B
Точное извлечение (достоверность 2) [22E294D1] (AR v2)
Копирование... OK

Все треки извлечены точно

Ошибок не произошло

Конец отчёта

==== Контрольная сумма отчёта A177E0A617824C32F435E457577E00501A4AF7F8BE0CDCA5058FEE7A00592F15 ====
[media=https://www.youtube.com/watch?v=Wlgcm1hmmIw]


Direct Download

Tags: Gillespie, Greatest, Gillespie

Comments
Name:*
E-Mail:*
Add Comments:
Enter Code: *