Download Now

The Four Freshmen - Voices in Latin / The Freshman Year (1999) 2LP in 1CD

The Four Freshmen - Voices in Latin / The Freshman Year (1999) 2LP in 1CD
EAC | FLAC | Tracks (Cue&Log) ~ 405 Mb (incl 5%) | Mp3 (CBR320) ~ 177 Mb (incl 5%) | Scans included
Genre: Vocal Jazz, Vocal Pop, Harmony Vocal Group | Label: Collectors' Choice Music | # CCM095-2 | Time: 01:08:00

"In 1999, Collectors' Choice released Voices in Latin/The Freshman Year, which contained two complete albums -- Voices in Latin (1958, originally released on Capitol) and The Freshman Year (1961, originally released on Capitol) -- by the Four Freshmen on one compact disc."

"The original members of The Four Freshmen sang and harmonized with a lot of style; they stood out just as the current members do! This group has enjoyed a great deal of success. This CD has all of the songs from 2 of their 1958, original member record albums entitled Voices In Latin and The Freshman Year. These tracks sound just great; there's no surface noise and it's a big improvement over my old record albums which have been worn down to the point where they no longer have grooves on them! The artwork is very nicely done and it incorporates the original artwork from the two record album jackets when these albums were released in 1958.

The CD begins with The Four Freshmen singing their hearts out on "Frenesi;" they never sounded better--and how's about that brass? "If I Should Lose You" sparkles brightly when The Four Freshmen sing it to perfection; and their excellent diction enhances the performance even more! "Yesterdays" uses the drums well in the arrangement; this adds a Latin touch to the tune and these men handle complex tempo and key changes like the pros they truly were and still remain! In particular, I really like "Tangerine;" the big band arrangement of "Tangerine" works wonders for this ballad.

"What's New?" is very pretty; and The Four Freshmen never miss a beat, either. "Brazil" is a stand-out of this album; "Brazil" was always one of my favorite Latin numbers and The Four Freshmen do not disappoint! They speed up the tempo just a bit to make "Brazil" an electric number; and I think you'll like "Brazil" very much. In addition, "Star Eyes" is very easy on the ear; this proves these guys truly had the chops to handle sophisticated ballads. Again, the music makes good use of the brass and that's terrific. I also like "Again;" "Again" features these men front and center for a classic love song. They ace this seemingly effortlessly and that Latin beat makes the number heavenly.

"Fools Rush In" charms me with its beauty; it's a major highlight of this CD. They harmonize to perfection, too. Moreover, "I'm Getting Sentimental Over You" is most romantic; The Four Freshmen deliver this without letting go of a superfluous note and "I'm Getting Sentimental Over You" certainly gets the royal treatment here! "Their Hearts Were Full Of Spring" has both major and minor keys to make it a rather touching ballad; these men never falter and it's a beautiful number on this CD. "My Funny Valentine" is another one of my very favorite love songs; The Four Freshmen do this one up right--wow! They do great justice to this ballad with a very sensitive rendition that glows brighter than silver and gold combined. "It's Only A Paper Moon" is actually a bit too jazzy for my taste; but this CD is just so good I can overlook this disappointment. The CD ends strong with The Four Freshmen singing "Dream." "Dream" sounds heavenly and it's so clear that these men put everything they have into their delivery of this classic song; and they do not disappoint.

The Four Freshmen rate high in my book with twofer CDs like this one. Yes, the group has undergone several membership changes since they first achieved fame and fortune in the early 1950s; but their sound remains essentially the same thanks to careful, proactive planning--not to mention their enchanting interpretations of the classics that create the same winning shows year after year after year.

Review by Matthew G. Sherwin, Amazon.com
"




Tracklist:

Voices in Latin (1958):

01. Frenesi (2:51)
02. If I Should Lose You (3:05)
03. Granada (3:21)
04. Yesterdays (2:41)
05. Tangerine (2:55)
06. What's New (1:42)
07. Brazil (2:33)
08. Chelsea Bridge (4:12)
09. Mine (2:21)
10. Star Eyes (3:02)
11. The Breeze and I (2:39)
12. Again (2:16)

The Freshman Year (1961):

13. The Freshman Year (3:07)
14. Fools Rush In (2:36)
15. Where Do I Go from Here (2:22)
16. I'm Gettin' Sentimental over You (3:12)
17. It Happens Every Spring (2:56)
18. Show Me the Way to Get Out of This World ('Cause That's Where Everything Is) (2:30)
19. Their Hearts Were Full of Spring (2:45)
20. If I Knew Then (2:55)
21. My Funny Valentine (3:08)
22. It's Only a Paper Moon (2:26)
23. But Beautiful (3:27)
24. Dream (2:58)


Exact Audio Copy V1.0 beta 3 from 29. August 2011

EAC extraction logfile from 6. December 2014, 0:28

The Four Freshmen / Voices In Latin / The Freshman Year

Used drive : HL-DT-STDVDRAM GH22LS40 Adapter: 2 ID: 0

Read mode : Secure
Utilize accurate stream : Yes
Defeat audio cache : Yes
Make use of C2 pointers : No

Read offset correction

: 667
Overread into Lead-In and Lead-Out : No
Fill up missing offset samples with silence : Yes
Delete leading and trailing silent blocks : No
Null samples used in CRC calculations : Yes
Used interface
: Installed external ASPI interface
Gap handling
: Appended to previous track

Used output format : User Defined Encoder
Selected bitrate : 1024 kBit/s
Quality : High
Add ID3 tag : No
Command line compressor : C:\Program Files\FLAC\flac.exe
Additional command line options : -8 -V -T "ARTIST=%artist%" -T "TITLE=%title%" -T "ALBUM=%albumtitle%" -T "DATE=%year%" -T "TRACKNUMBER=%tracknr1%" -T "GENRE=%genre%" -T "PERFORMER=%albuminterpret%" -T "COMPOSER=%composer%" %haslyrics%--tag-from-file=LYRICS="%lyricsfile%"%haslyrics% -T "ALBUMARTIST=%albumartist%" -T "DISCNUMBER=%cdnumber%" -T "TOTALDISCS=%totalcds%" -T "TOTALTRACKS=%numtracks%" -T "COMMENT=%comment%" %source% -o %dest%

TOC of the extracted CD Track | Start | Length | Start sector | End sector
-----------1 | 0:00.00 | 2:51.25 | 0 | 12849 2 | 2:51.25 | 3:05.10 | 12850 | 26734 3 | 5:56.35 | 3:21.12 | 26735 | 41821 4 | 9:17.47 | 2:41.33 | 41822 | 53929 5 | 11:59.05 | 2:55.15 | 53930 | 67069 6 | 14:54.20 | 1:41.47 | 67070 | 74691 7 | 16:35.67 | 2:32.68 | 74692 | 86159 8 | 19:08.60 | 4:11.40 | 86160 | 105024 9 | 23:20.25 | 2:20.67 | 105025 | 115591
10 | 25:41.17 | 3:01.70 | 115592 | 129236
11 | 28:43.12 | 2:38.65 | 129237 | 141151
12 | 31:22.02 | 2:16.30 | 141152 | 151381
13 | 33:38.32 | 3:07.03 | 151382 | 165409
14 | 36:45.35 | 2:36.00 | 165410 | 177109
15 | 39:21.35 | 2:21.42 | 177110 | 187726
16 | 41:43.02 | 3:11.73 | 187727 | 202124
17 | 44:55.00 | 2:55.65 | 202125 | 215314
18 | 47:50.65 | 2:30.22 | 215315 | 226586
19 | 50:21.12 | 2:45.13 | 226587 | 238974
20 | 53:06.25 | 2:54.57 | 238975 | 252081
21 | 56:01.07 | 3:08.20 | 252082 | 266201
22 | 59:09.27 | 2:25.53 | 266202 | 277129
23 | 61:35.05 | 3:26.65 | 277130 | 292644
24 | 65:01.70 | 2:58.37 | 292645 | 306031

Track 1 Filename C:\EAC Rips\The Four Freshman - Voices in Latin - The Freshman Year (1999) [FLAC]\01 - Frenesi.wav Pre-gap length 0:00:02.00 Peak level 95.4 %
Extraction speed 0.8 X
Track quality 99.9 %
Test CRC 4A95387E
Copy CRC 4A95387E
Accurately ripped (confidence 4) [32EDC8A6] (AR v2)
Copy OK

Track 2 Filename C:\EAC Rips\The Four Freshman - Voices in Latin - The Freshman Year (1999) [FLAC]\02 - If I Should Lose You.wav Pre-gap length 0:00:01.73 Peak level 87.3 %
Extraction speed 1.1 X
Track quality 100.0 %
Test CRC A8BF3BA7
Copy CRC A8BF3BA7
Accurately ripped (confidence 4) [55957A4E] (AR v2)
Copy OK

Track 3 Filename C:\EAC Rips\The Four Freshman - Voices in Latin - The Freshman Year (1999) [FLAC]\03 - Granada.wav Pre-gap length 0:00:02.30 Peak level 90.8 %
Extraction speed 1.0 X
Track quality 99.9 %
Test CRC A5284FE6
Copy CRC A5284FE6
Accurately ripped (confidence 4) [3BCDA4AB] (AR v2)
Copy OK

Track 4 Filename C:\EAC Rips\The Four Freshman - Voices in Latin - The Freshman Year (1999) [FLAC]\04 - Yesterdays.wav Pre-gap length 0:00:02.20 Peak level 83.9 %
Extraction speed 1.2 X
Track quality 100.0 %
Test CRC 4E43B7A4
Copy CRC 4E43B7A4
Accurately ripped (confidence 4) [4590F363] (AR v2)
Copy OK

Track 5 Filename C:\EAC Rips\The Four Freshman - Voices in Latin - The Freshman Year (1999) [FLAC]\05 - Tangerine.wav Pre-gap length 0:00:02.60 Peak level 88.5 %
Extraction speed 1.3 X
Track quality 100.0 %
Test CRC 5B4B2960
Copy CRC 5B4B2960
Accurately ripped (confidence 4) [7D8A4B64] (AR v2)
Copy OK

Track 6 Filename C:\EAC Rips\The Four Freshman - Voices in Latin - The Freshman Year (1999) [FLAC]\06 - What's New.wav Pre-gap length 0:00:01.60 Peak level 84.9 %
Extraction speed 1.2 X
Track quality 100.0 %
Test CRC B9FACD13
Copy CRC B9FACD13
Accurately ripped (confidence 4) [35FA2DE2] (AR v2)
Copy OK

Track 7 Filename C:\EAC Rips\The Four Freshman - Voices in Latin - The Freshman Year (1999) [FLAC]\07 - Brazil.wav Pre-gap length 0:00:02.02 Peak level 77.2 %
Extraction speed 1.4 X
Track quality 100.0 %
Test CRC 4B26AED5
Copy CRC 4B26AED5
Accurately ripped (confidence 4) D0D9F85 (AR v2)
Copy OK

Track 8 Filename C:\EAC Rips\The Four Freshman - Voices in Latin - The Freshman Year (1999) [FLAC]\08 - Chelsea Bridge.wav Pre-gap length 0:00:01.93 Peak level 80.9 %
Extraction speed 1.6 X
Track quality 100.0 %
Test CRC E95A6665
Copy CRC E95A6665
Accurately ripped (confidence 4) [E889E2B5] (AR v2)
Copy OK

Track 9 Filename C:\EAC Rips\The Four Freshman - Voices in Latin - The Freshman Year (1999) [FLAC]\09 - Mine.wav Pre-gap length 0:00:01.90 Peak level 78.6 %
Extraction speed 1.5 X
Track quality 100.0 %
Test CRC A167BB72
Copy CRC A167BB72
Accurately ripped (confidence 4) [9D40F9A4] (AR v2)
Copy OK

Track 10 Filename C:\EAC Rips\The Four Freshman - Voices in Latin - The Freshman Year (1999) [FLAC]\10 - Star Eyes.wav Pre-gap length 0:00:01.62 Peak level 92.0 %
Extraction speed 1.4 X
Track quality 99.9 %
Test CRC 060345E6
Copy CRC 060345E6
Accurately ripped (confidence 4) [FDB65A3C] (AR v2)
Copy OK

Track 11 Filename C:\EAC Rips\The Four Freshman - Voices in Latin - The Freshman Year (1999) [FLAC]\11 - The Breeze And I.wav Pre-gap length 0:00:01.96 Peak level 79.5 %
Extraction speed 1.6 X
Track quality 100.0 %
Test CRC 6B3006BC
Copy CRC 6B3006BC
Accurately ripped (confidence 4) [AC0D4956] (AR v2)
Copy OK

Track 12 Filename C:\EAC Rips\The Four Freshman - Voices in Latin - The Freshman Year (1999) [FLAC]\12 - Again.wav Pre-gap length 0:00:02.22 Peak level 79.4 %
Extraction speed 1.6 X
Track quality 100.0 %
Test CRC AB1C708E
Copy CRC AB1C708E
Accurately ripped (confidence 4) [2CBF57B0] (AR v2)
Copy OK

Track 13 Filename C:\EAC Rips\The Four Freshman - Voices in Latin - The Freshman Year (1999) [FLAC]\13 - The Freshman Year.wav Pre-gap length 0:00:02.00 Peak level 100.0 %
Extraction speed 1.8 X
Track quality 100.0 %
Test CRC 9C7EB5B5
Copy CRC 9C7EB5B5
Accurately ripped (confidence 4) [4CB11A1C] (AR v2)
Copy OK

Track 14 Filename C:\EAC Rips\The Four Freshman - Voices in Latin - The Freshman Year (1999) [FLAC]\14 - Fools Rush In.wav Pre-gap length 0:00:02.33 Peak level 91.4 %
Extraction speed 1.4 X
Track quality 99.9 %
Test CRC 2B36C0D7
Copy CRC 2B36C0D7
Accurately ripped (confidence 4) [271E4E0C] (AR v2)
Copy OK

Track 15 Filename C:\EAC Rips\The Four Freshman - Voices in Latin - The Freshman Year (1999) [FLAC]\15 - Where Do I Go From Here.wav Pre-gap length 0:00:02.24 Peak level 74.8 %
Extraction speed 1.8 X
Track quality 100.0 %
Test CRC 0B8A0EA6
Copy CRC 0B8A0EA6
Accurately ripped (confidence 4) [80672B16] (AR v2)
Copy OK

Track 16 Filename C:\EAC Rips\The Four Freshman - Voices in Latin - The Freshman Year (1999) [FLAC]\16 - I'm Gettin' Sentimental Over You.wav Pre-gap length 0:00:01.82 Peak level 77.3 %
Extraction speed 1.9 X
Track quality 100.0 %
Test CRC 99930C0E
Copy CRC 99930C0E
Accurately ripped (confidence 4) [83228507] (AR v2)
Copy OK

Track 17 Filename C:\EAC Rips\The Four Freshman - Voices in Latin - The Freshman Year (1999) [FLAC]\17 - It Happens Every Spring.wav Pre-gap length 0:00:02.57 Peak level 68.7 %
Extraction speed 1.9 X
Track quality 100.0 %
Test CRC AD4CD5B3
Copy CRC AD4CD5B3
Accurately ripped (confidence 4) [6289BF61] (AR v2)
Copy OK

Track 18 Filename C:\EAC Rips\The Four Freshman - Voices in Latin - The Freshman Year (1999) [FLAC]\18 - Show Me The Way To Get Out Of This World ('Cause That's Where Everything Is).wav Pre-gap length 0:00:02.04 Peak level 77.8 %
Extraction speed 1.8 X
Track quality 100.0 %
Test CRC E002F778
Copy CRC E002F778
Accurately ripped (confidence 4) [5DA1F57B] (AR v2)
Copy OK

Track 19 Filename C:\EAC Rips\The Four Freshman - Voices in Latin - The Freshman Year (1999) [FLAC]\19 - Their Hearts Were Full Of Spring.wav Pre-gap length 0:00:02.66 Peak level 82.1 %
Extraction speed 2.0 X
Track quality 100.0 %
Test CRC CD77F277
Copy CRC CD77F277
Accurately ripped (confidence 4) [A6646006] (AR v2)
Copy OK

Track 20 Filename C:\EAC Rips\The Four Freshman - Voices in Latin - The Freshman Year (1999) [FLAC]\20 - If I Knew Then.wav Pre-gap length 0:00:01.86 Peak level 87.1 %
Extraction speed 2.1 X
Track quality 100.0 %
Test CRC B1428A73
Copy CRC B1428A73
Accurately ripped (confidence 4) [FBEA9EB3] (AR v2)
Copy OK

Track 21 Filename C:\EAC Rips\The Four Freshman - Voices in Latin - The Freshman Year (1999) [FLAC]\21 - My Funny Valentine.wav Pre-gap length 0:00:03.02 Peak level 82.5 %
Extraction speed 2.1 X
Track quality 100.0 %
Test CRC D75B0A5B
Copy CRC D75B0A5B
Accurately ripped (confidence 4) [F8D71BDD] (AR v2)
Copy OK

Track 22 Filename C:\EAC Rips\The Four Freshman - Voices in Latin - The Freshman Year (1999) [FLAC]\22 - It's Only A Paper Moon.wav Pre-gap length 0:00:02.00 Peak level 74.2 %
Extraction speed 2.0 X
Track quality 100.0 %
Test CRC 5A819C33
Copy CRC 5A819C33
Accurately ripped (confidence 4) [63A25038] (AR v2)
Copy OK

Track 23 Filename C:\EAC Rips\The Four Freshman - Voices in Latin - The Freshman Year (1999) [FLAC]\23 - But Beautiful.wav Pre-gap length 0:00:02.30 Peak level 86.9 %
Extraction speed 2.2 X
Track quality 100.0 %
Test CRC 63AD72E2
Copy CRC 63AD72E2
Accurately ripped (confidence 4) [F61E2EF3] (AR v2)
Copy OK

Track 24 Filename C:\EAC Rips\The Four Freshman - Voices in Latin - The Freshman Year (1999) [FLAC]\24 - Dream.wav Pre-gap length 0:00:02.00 Peak level 75.4 %
Extraction speed 2.3 X
Track quality 100.0 %
Test CRC 934F37B2
Copy CRC 934F37B2
Accurately ripped (confidence 4) E87ED4B (AR v2)
Copy OK

All tracks accurately ripped

No errors occurred

End of status report

---- CUETools DB Plugin V2.1.3

[CTDB TOCID: pgy9K1r7HxwcgzPObSSKIJXpgYo-] disk not present in database, Submit result: pgy9K1r7HxwcgzPObSSKIJXpgYo- has been uploaded

==== Log checksum 214DF9E7114A1E2A761241D68A9367B03D3197CCE96BCCBA9B974B334AAC5F2D ====

foobar2000 1.2 / Dynamic Range Meter 1.1.1
log date: 2015-03-30 17:42:23

--
Analyzed: The Four Freshmen / Voices in Latin, The Freshman Year
--

DR Peak RMS Duration Track
--
DR11 -0.40 dB -14.22 dB 2:51 01-Frenesi
DR11 -1.18 dB -15.27 dB 3:05 02-If I Should Lose You
DR11 -0.83 dB -14.77 dB 3:21 03-Granada
DR10 -1.52 dB -14.66 dB 2:41 04-Yesterdays
DR11 -1.05 dB -14.45 dB 2:55 05-Tangerine
DR12 -1.41 dB -15.63 dB 1:42 06-What's New
DR11 -2.24 dB -15.24 dB 2:33 07-Brazil
DR11 -1.84 dB -15.44 dB 4:12 08-Chelsea Bridge
DR12 -2.08 dB -16.21 dB 2:21 09-Mine
DR12 -0.72 dB -16.33 dB 3:02 10-Star Eyes
DR11 -1.99 dB -15.26 dB 2:39 11-The Breeze and I
DR11 -1.99 dB -15.39 dB 2:16 12-Again
DR12 0.00 dB -15.45 dB 3:07 13-The Freshman Year
DR11 -0.78 dB -14.95 dB 2:36 14-Fools Rush In
DR12 -2.52 dB -16.64 dB 2:22 15-Where Do I Go from Here
DR10 -2.23 dB -15.28 dB 3:12 16-I'm Gettin' Sentimental over You
DR12 -3.25 dB -19.19 dB 2:56 17-It Happens Every Spring
DR13 -2.17 dB -17.82 dB 2:30 18-Show Me the Way to Get Out of This World ('Cause That's Where Everything Is)
DR12 -1.70 dB -17.42 dB 2:45 19-Their Hearts Were Full of Spring
DR11 -1.20 dB -15.82 dB 2:55 20-If I Knew Then
DR13 -1.67 dB -21.45 dB 3:08 21-My Funny Valentine
DR10 -2.59 dB -15.36 dB 2:26 22-It's Only a Paper Moon
DR12 -1.21 dB -16.73 dB 3:27 23-But Beautiful
DR10 -2.44 dB -15.37 dB 2:58 24-Dream
--

Number of tracks: 24
Official DR value: DR11

Samplerate: 44100 Hz
Channels: 2
Bits per sample: 16
Bitrate: 795 kbps
Codec: FLAC

The Four Freshmen - Voices in Latin / The Freshman Year (1999) 2LP in 1CD

The Four Freshmen - Voices in Latin / The Freshman Year (1999) 2LP in 1CD



DOWNLOAD LINKS:
Buy Premium To Support Me & Get Resumable Support & Max Speed


Links are Interchangeable - No Password - Single Extraction
Direct Download

Tags: Freshmen, Voices, Freshman

Comments
Name:*
E-Mail:*
Add Comments:
Enter Code: *