Download Now

Johnny Copeland - Ghetto Child: The Houston Sessions (2003)

Johnny Copeland - Ghetto Child: The Houston Sessions (2003)
EAC | FLAC | Image (Cue&Log) ~ 296 Mb (incl 5%) | Mp3 (CBR320) ~ 151 Mb (incl 5%) | Scans included
Genre: Electric Texas Blues | Label: Castle Music | # 06076 81251-2 | Time: 00:40:01

"If you're talking about packaging, the flaws of this disc are considerable. Comprised of 14 songs from 1960-1990 (most from 1960-71), the unifying theme is that all of them are taking from Houston recording sessions. But while recording dates and some personnel are noted, the original labels and dates of release are not. Furthermore, although the liner notes give a reasonable overview of Copeland's career, the tracks on this specific compilation are not discussed. And, putting the boot in, the cuts are not sequenced chronologically, but arranged almost as if someone had pressed the random button on a CD remote. Now, having aired all those complaints, the music is very good. These are fiery, committed performances in which the songs and arrangements often veer as much toward soul as toward blues. That's something that works to Copeland's advantage, both because he was versatile enough to combine styles well, and because it made him stand out from legions of other journeymen bluesmen."



Tracklist:

01. Rock Me Baby (05:08)
02. Let Me Cry (02:49)
03. Something's Up Your Sleeve (02:19)
04. Ghetto Child (03:27)
05. Daily Bread (02:49)
06. Heebie Jeebies (02:44)
07. Mama Told Me (02:29)
08. May The Best Man Win (02:31)
09. Proving Time (02:17)
10. You've Got Me Singing A Love Song (03:42)
11. Please Let Me Know (02:27)
12. Coming To See About You (02:27)
13. House Of So Many Tears (02:23)
14. Soul Power (02:22)


Exact Audio Copy V1.0 beta 4 from 7. December 2014

Отчёт EAC об извлечении, выполненном 20. марта 2015, 9:53

Johnny Copeland / Ghetto Child

Дисковод: SONY CD-RW CRX230ED Adapter: 1 ID: 0

Режим чтения : Достоверность
Использование точного потока : Да
Отключение кэша аудио : Да
Использование указателей C2 : Нет

Коррекция смещения при чтении : 6
Способность читать области Lead-in и Lead-out : Нет
Заполнение пропущенных сэмплов тишиной : Да
Удаление блоков с тишиной в начале и конце : Нет
При вычислениях CRC использовались нулевые сэмплы : Да
Интерфейс : Встроенный Win32-интерфейс для Win NT/2000

Выходной формат : Внутренние WAV-операции
Формат сэмплов : 44.100 Гц; 16 бит; стерео

TOC извлечённого CD Трек | Старт | Длительность | Начальный сектор | Конечный сектор
-------
1 | 0:00.00 | 5:08.74 | 0 | 23173
2 | 5:08.74 | 2:49.55 | 23174 | 35903
3 | 7:58.54 | 2:19.74 | 35904 | 46402
4 | 10:18.53 | 3:27.19 | 46403 | 61946
5 | 13:45.72 | 2:49.11 | 61947 | 74632
6 | 16:35.08 | 2:44.27 | 74633 | 86959
7 | 19:19.35 | 2:29.53 | 86960 | 98187
8 | 21:49.13 | 2:31.24 | 98188 | 109536
9 | 24:20.37 | 2:17.46 | 109537 | 119857
10 | 26:38.08 | 3:42.47 | 119858 | 136554
11 | 30:20.55 | 2:27.41 | 136555 | 147620
12 | 32:48.21 | 2:27.18 | 147621 | 158663
13 | 35:15.39 | 2:23.64 | 158664 | 169452
14 | 37:39.28 | 2:22.11 | 169453 | 180113

Характеристики диапазона извлечения и сообщения об ошибках

Выбранный диапазон Имя файла F:\MusicCD\Torrent\Johnny Copeland - Ghetto Child\Johnny Copeland - Ghetto Child.wav Пиковый уровень 99.8 %
Скорость извлечения 6.8 X
Качество диапазона 100.0 %
CRC теста 5923F4C0
CRC копии 5923F4C0
Копирование... OK

Ошибок не произошло


AccurateRip: сводка

Трек 1 : извлечено точно (доверие 1) [7E874FD1] (AR v1)
Трек 2 : извлечено точно (доверие 1) [2399EF22] (AR v1)
Трек 3 : извлечено точно (доверие 1) [CE3168D1] (AR v1)
Трек 4 : извлечено точно (доверие 1) [6D921DAA] (AR v1)
Трек 5 : извлечено точно (доверие 1) [5001D9B1] (AR v1)
Трек 6 : извлечено точно (доверие 1) F9AC654 (AR v1)
Трек 7 : извлечено точно (доверие 1) [0EF32E71] (AR v1)
Трек 8 : извлечено точно (доверие 1) [25740CD9] (AR v1)
Трек 9 : извлечено точно (доверие 1) [4B0AD8A5] (AR v1)
Трек 10 : извлечено точно (доверие 1) 304D988 (AR v1)
Трек 11 : извлечено точно (доверие 1) [AD36BF32] (AR v1)
Трек 12 : извлечено точно (доверие 1) [663C35E0] (AR v1)
Трек 13 : извлечено точно (доверие 1) [D0E34FA9] (AR v1)
Трек 14 : извлечено точно (доверие 1) [D027A982] (AR v1)

Все треки извлечены точно

Конец отчёта

---- CUETools DB Plugin V2.1.4

[CTDB TOCID: LJrrf9TXZqKaddBmNojKARW60PI-] found
Submit result: LJrrf9TXZqKaddBmNojKARW60PI- has been confirmed
Track | CTDB Status
1 | (1/1) Accurately ripped
2 | (1/1) Accurately ripped
3 | (1/1) Accurately ripped
4 | (1/1) Accurately ripped
5 | (1/1) Accurately ripped
6 | (1/1) Accurately ripped
7 | (1/1) Accurately ripped
8 | (1/1) Accurately ripped
9 | (1/1) Accurately ripped
10 | (1/1) Accurately ripped
11 | (1/1) Accurately ripped
12 | (1/1) Accurately ripped
13 | (1/1) Accurately ripped
14 | (1/1) Accurately ripped

==== Контрольная сумма отчёта B03E8D22C3B88FFB006F02634FDD216653AC0E46827DD4A6715B90D12DA3105F ====

foobar2000 1.2 / Dynamic Range Meter 1.1.1
log date: 2015-03-20 17:43:07

--
Analyzed: Johnny Copeland / Ghetto Child
--

DR Peak RMS Duration Track
--
DR8 -0.01 dB -9.54 dB 5:09 01-Rock Me Baby
DR9 -0.01 dB -11.11 dB 2:50 02-Let Me Cry
DR11 -0.01 dB -12.51 dB 2:20 03-Something's Up Your Sleeve
DR11 -0.01 dB -13.08 dB 3:27 04-Ghetto Child
DR10 -0.01 dB -11.35 dB 2:49 05-Daily Bread
DR11 -0.01 dB -12.42 dB 2:44 06-Heebie Jeebies
DR11 -0.01 dB -11.57 dB 2:30 07-Mama Told Me
DR8 -0.01 dB -9.54 dB 2:31 08-May The Best Man Win
DR8 -0.01 dB -9.25 dB 2:18 09-Proving Time
DR10 -0.01 dB -11.52 dB 3:43 10-You've Got Me Singing A Love Song
DR8 -0.01 dB -9.87 dB 2:28 11-Please Let Me Know
DR9 -0.01 dB -10.74 dB 2:27 12-Coming To See About You
DR12 -0.01 dB -13.19 dB 2:24 13-House Of So Many Tears
DR8 -0.01 dB -9.46 dB 2:22 14-Soul Power
--

Number of tracks: 14
Official DR value: DR10

Samplerate: 44100 Hz
Channels: 2
Bits per sample: 16
Bitrate: 805 kbps
Codec: FLAC

Johnny Copeland - Ghetto Child: The Houston Sessions (2003)

Johnny Copeland - Ghetto Child: The Houston Sessions (2003)



DOWNLOAD LINKS:
Buy Premium To Support Me & Get Resumable Support & Max Speed


Links are Interchangeable - No Password - Single Extraction
Direct Download

Tags: Johnny, Copeland, Ghetto, Houston, Sessions

Comments
Name:*
E-Mail:*
Add Comments:
Enter Code: *