Download Now

Bill Wyman - Monkey Grip (1974) [Japanese Mini-LP, 2005]

Bill Wyman - Monkey Grip (1974) [Japanese Mini-LP, 2005]
EAC | FLAC | Image (Cue&Log) ~ 333 Mb (incl 5%) | Mp3 (CBR320) ~ 139 Mb (incl 5%) | Scans included
Genre: Classic Rock, Pop Rock, Rock & Roll | Label: Imperial Records | # TECL-24300 | Time: 00:43:17

"The great thing about a solo album from someone like Bill Wyman, of the Rolling Stones, is that quality musicianship and high-profile guest appearances are all but a given. The unfortunate aspect, though, is that the Stones bassist was never known for his songwriting. In the case of Monkey Grip, the first claim holds true (with guest appearances by Dr. John, Lowell George, and Leon Russell, the album is a solid affair musically), while the issue of Wyman's songwriting ability leaves the listener pleasantly surprised. Granted, there aren't any moments where you ask yourself, "why didn't this song appear on a Stones album?" but tracks such as "I Wanna Get Me a Gun," "White Lightnin'," and "I'll Pull You Thro'" are propelled with a laid-back groove that is surprisingly catchy. And, unlike Wyman's famous stone-faced stage demeanor, his singing is loose and joy-filled."



Tracklist:

01. I Wanna Get Me A Gun (04:57)
02. Crazy Woman (02:42)
03. Pussy (02:10)
04. Mighty Fine Time (03:36)
05. Monkey Grip Glue (04:55)
06. What A Blow (05:22)
07. White Lightnin' (02:42)
08. I'll Pull You Thro' (04:23)
09. It's A Wonder (05:39)
10. Wine And Wimmen 2 (03:42)
11. It's Just A Matter Of Time (03:03)


Exact Audio Copy V0.99 prebeta 4 from 23. January 2008

Отчёт EAC об извлечении, выполненном 5. декабря 2011, 1:55

Bill Wyman / Monkey Grip

Дисковод: ATAPI iHES108 2 Adapter: 1 ID: 1

Режим чтения : Достоверность
Использование точного потока : Да
Отключение кэша аудио : Да
Использование указателей C2 : Нет

Коррекция смещения при чтении : 6
Способность читать области Lead-in и Lead-out : Нет
Заполнение пропущенных сэмплов тишиной : Да
Удаление блоков с тишиной в начале и конце : Нет
При вычислениях CRC использовались нулевые сэмплы : Да
Интерфейс
: Встроенный Win32-интерфейс для Win NT/2000

Выходной формат : Пользовательский кодировщик
Выбранный битрейт : 1024 kBit/s
Качество : Высокий
Добавление ID3-тэга : Нет
Утилита сжатия : C:\Program Files\Exact Audio Copy\Flac\flac.exe
Дополнительные параметры : -V -8 -T "artist=%a" -T "title=%t" -T "album=%g" -T "date=%y" -T "tracknumber=%n" -T "genre=%m" %s

TOC извлечённого CD Трек | Старт | Длительность | Начальный сектор | Конечный сектор
-------
1 | 0:00.00 | 4:57.68 | 0 | 22342
2 | 4:57.68 | 2:42.02 | 22343 | 34494
3 | 7:39.70 | 2:10.15 | 34495 | 44259
4 | 9:50.10 | 3:36.63 | 44260 | 60522
5 | 13:26.73 | 4:55.72 | 60523 | 82719
6 | 18:22.70 | 5:22.33 | 82720 | 106902
7 | 23:45.28 | 2:42.45 | 106903 | 119097
8 | 26:27.73 | 4:23.35 | 119098 | 138857
9 | 30:51.33 | 5:39.61 | 138858 | 164343
10 | 36:31.19 | 3:42.01 | 164344 | 180994
11 | 40:13.20 | 3:03.29 | 180995 | 194748

Характеристики диапазона извлечения и сообщения об ошибках

Выбранный диапазон Имя файла D:\EAC-FOLDER\1974-Bill Wyman - Monkey Grip\Bill Wyman - Monkey Grip (jpn LP-replica)\Bill Wyman - Monkey Grip.wav Пиковый уровень 99.9 %
Качество диапазона 100.0 %
CRC теста BB70AF34
CRC копии BB70AF34
Копирование... OK

Ошибок не произошло


AccurateRip: сводка

Трек 1 нет в базе данных
Трек 2 нет в базе данных
Трек 3 нет в базе данных
Трек 4 нет в базе данных
Трек 5 нет в базе данных
Трек 6 нет в базе данных
Трек 7 нет в базе данных
Трек 8 нет в базе данных
Трек 9 нет в базе данных
Трек 10 нет в базе данных
Трек 11 нет в базе данных

Ни одного трека нет в базе AccurateRip

Конец отчёта

foobar2000 1.2 / Dynamic Range Meter 1.1.1
log date: 2015-03-02 15:17:43

--
Analyzed: Bill Wyman / Monkey Grip
--

DR Peak RMS Duration Track
--
DR8 0.00 dB -9.20 dB 4:58 01-I Wanna Get Me A Gun
DR8 0.00 dB -9.52 dB 2:42 02-Crazy Woman
DR7 0.00 dB -8.44 dB 2:10 03-Pussy
DR8 0.00 dB -9.03 dB 3:37 04-Mighty Fine Time
DR8 0.00 dB -9.32 dB 4:56 05-Monkey Grip Glue
DR9 0.00 dB -10.73 dB 5:22 06-What A Blow
DR9 0.00 dB -10.26 dB 2:43 07-White Lightnin'
DR8 0.00 dB -10.10 dB 4:23 08-I'll Pull You Thro'
DR9 0.00 dB -11.45 dB 5:40 09-It's A Wonder
DR9 -0.30 dB -10.50 dB 3:42 10-Wine And Wimmen 2
DR11 -0.30 dB -12.44 dB 3:03 11-It's Just A Matter Of Time
--

Number of tracks: 11
Official DR value: DR9

Samplerate: 44100 Hz
Channels: 2
Bits per sample: 16
Bitrate: 919 kbps
Codec: FLAC

Bill Wyman - Monkey Grip (1974) [Japanese Mini-LP, 2005]

Bill Wyman - Monkey Grip (1974) [Japanese Mini-LP, 2005]


DOWNLOAD LINKS:
Buy Premium From My Links To Get Resumable Support,Max Speed & Support Me


Links are Interchangeable - No Password - Single Extraction
Direct Download

Tags: Monkey, Japanese

Comments
Name:*
E-Mail:*
Add Comments:
Enter Code: *