Download Now

Chet Atkins & VA - Chet Atkins: Certified Guitar Player (2010) [Upgrade]

Chet Atkins - Chet Atkins: Certified Guitar Player (2010)
With the Everly Brothers, Emmylou Harris, Waylon Jennings, Mark Knopfler, Michael McDonald, Willie Nelson

EAC | FLAC | Image (Cue&Log) ~ 383 Mb (incl 5%) | Mp3 (CBR320) ~ 157 Mb (incl 5%) | Scans included
Genre: Country, Finger-Picked Guitar, Country Pop | Label: Digital Row LLC. | # CRT CA1001CD | Time: 00:58:53

"As seen on PBS. Chet Atkins - Certified Guitar Player is a concert-tribute to Chet Atkins, performed by Chet and many giants in the music business: Mark Knopfler, The Everly Brothers, Emmylou Harris, Michael McDonald, Waylon Jennings, and Willie Nelson, backed by Nashville's premier studio musicians. Great music, great fun, and a moving experience as a joyful document created about Chet Atkins' importance in the history of music, and to everyone on that stage. The CD: contains the entire soundtrack of the program above. It has all the music (17 songs), all the interplay between Chet and his fellow stars, and all the excitement felt by the audience that night."



Tracklist:

01. Introduction (03:44)
02. I'll See You In My Dreams (02:21) - performed by Chet Atkins & Mark Knopfler
03. Walk Of Life (03:46) - performed by Mark Knopfler
04. All I Have To Do Is Dream (00:41) - performed by The Everly Brothers
05. Bye, Bye, Love (01:23) - performed by The Everly Brothers
06. Wake Up Little Susie (01:28) - performed by The Everly Brothers
07. Why Worry (06:31) - performed by The Everly Brothers
08. Precious Memories (05:19) - performed by Emmylou Harris
09. Waltz For The Lonely (03:33) - performed by Chet Atkins
10. I Keep Forgettin' (04:45) - performed by Michael McDonald & Emmylou Harris
11. Rose In Paradise (03:53) - performed by Waylon Jennings
12. Good Hearted Woman (03:38) - performed by Waylon Jennings & Willie Nelson
13. Island In The Sea (02:49) - performed by Willie Nelson
14. Sunrise (03:42) - performed by Chet Atkins & David Pack
15. Imagine (02:48) - performed by Chet Atkins & Mark Knopfler
16. I Still Can't Say Goodbye (04:13) - performed by Chet Atkins
17. Corrine, Corrina (04:12) - performed by Entire Cast


Exact Audio Copy V1.0 beta 3 from 29. August 2011

EAC extraction logfile from 24. September 2014, 13:08

Chet Atkins / Chet Atkins: Certified Guitar Player

Used drive : ASUS SDRW-08D1S-U Adapter: 1 ID: 0

Read mode : Secure
Utilize accurate stream : Yes
Defeat audio cache : Yes
Make use of C2 pointers : No

Read offset correction : 667
Overread into Lead-In and Lead-Out : No
Fill up missing offset samples with silence : Yes
Delete leading and trailing silent blocks : No
Null samples used in CRC calculations : Yes
Used interface : Native Win32 interface for Win NT & 2000

Used output format : User Defined Encoder
Selected bitrate : 128 kBit/s
Quality : High
Add ID3 tag : No
Command line compressor : C:\Program Files (x86)\Exact Audio Copy\Flac\flac.exe
Additional command line options : -V -8 -T "Date=%year%" -T "Genre=%genre%" %source%

TOC of the extracted CD Track | Start | Length | Start sector | End sector
-----------
1 | 0:00.00 | 3:44.02 | 0 | 16801
2 | 3:44.02 | 2:21.46 | 16802 | 27422
3 | 6:05.48 | 3:46.10 | 27423 | 44382
4 | 9:51.58 | 0:41.57 | 44383 | 47514
5 | 10:33.40 | 1:23.61 | 47515 | 53800
6 | 11:57.26 | 1:28.53 | 53801 | 60453
7 | 13:26.04 | 6:31.15 | 60454 | 89793
8 | 19:57.19 | 5:19.70 | 89794 | 113788
9 | 25:17.14 | 3:33.32 | 113789 | 129795
10 | 28:50.46 | 4:45.71 | 129796 | 151241
11 | 33:36.42 | 3:53.19 | 151242 | 168735
12 | 37:29.61 | 3:38.04 | 168736 | 185089
13 | 41:07.65 | 2:49.22 | 185090 | 197786
14 | 43:57.12 | 3:42.74 | 197787 | 214510
15 | 47:40.11 | 2:48.40 | 214511 | 227150
16 | 50:28.51 | 4:13.02 | 227151 | 246127
17 | 54:41.53 | 4:12.00 | 246128 | 265027

Range status and errors

Selected range Filename C:\Users\Олег\Desktop\Chet Atkins\Chet Atkins - Chet Atkins- Certified Guitar Player.wav Peak level 100.0 %
Extraction speed 4.1 X
Range quality 100.0 %
Test CRC 976AD9C3
Copy CRC 976AD9C3
Copy OK

No errors occurred


AccurateRip summary

Track 1 cannot be verified as accurate (confidence 4) [7C526449], AccurateRip returned [A14942E3] (AR v2)
Track 2 cannot be verified as accurate (confidence 4) [622D18B5], AccurateRip returned [5E4C4BA4] (AR v2)
Track 3 cannot be verified as accurate (confidence 4) [8FA84C4C], AccurateRip returned [56B668B9] (AR v2)
Track 4 cannot be verified as accurate (confidence 4) [9F52727F], AccurateRip returned [21E8EB98] (AR v2)
Track 5 cannot be verified as accurate (confidence 4) [30EC26D3], AccurateRip returned [EB9C1613] (AR v2)
Track 6 cannot be verified as accurate (confidence 4) [4ABD5375], AccurateRip returned [47704105] (AR v2)
Track 7 cannot be verified as accurate (confidence 4) [27600E67], AccurateRip returned [9C36DEE4] (AR v2)
Track 8 cannot be verified as accurate (confidence 4) [7DC9CBFB], AccurateRip returned [67007571] (AR v2)
Track 9 cannot be verified as accurate (confidence 4) [1F28D336], AccurateRip returned [323EB81E] (AR v2)
Track 10 cannot be verified as accurate (confidence 4) [685E89AE], AccurateRip returned [136DE2D4] (AR v2)
Track 11 cannot be verified as accurate (confidence 4) [F0235D50], AccurateRip returned [EFE274B6] (AR v2)
Track 12 cannot be verified as accurate (confidence 4) [E3B72405], AccurateRip returned [1E4DDD4A] (AR v2)
Track 13 cannot be verified as accurate (confidence 4) [6ED368CA], AccurateRip returned [457A1E1D] (AR v2)
Track 14 cannot be verified as accurate (confidence 4) [19678A1C], AccurateRip returned [80F1C37E] (AR v2)
Track 15 cannot be verified as accurate (confidence 4) [A5356CF0], AccurateRip returned ED93A2F (AR v2)
Track 16 cannot be verified as accurate (confidence 4) [2F015302], AccurateRip returned [6546B54E] (AR v2)
Track 17 cannot be verified as accurate (confidence 4) [60994426], AccurateRip returned [7B03DE31] (AR v2)

No tracks could be verified as accurate
You may have a different pressing from the one(s) in the database

End of status report

==== Log checksum 41DEB6C0C78EBA1C2F348AAE4C9D8E87A8E5169A75618F5BE9F026ABF423E3EC ====

foobar2000 1.2 / Dynamic Range Meter 1.1.1
log date: 2015-01-08 22:46:19

--
Analyzed: Chet Atkins / Chet Atkins: Certified Guitar Player
--

DR Peak RMS Duration Track
--
DR13 -0.63 dB -17.34 dB 3:44 01-Introduction
DR13 -2.24 dB -16.53 dB 2:22 02-I'll See You In My Dreams
DR13 -0.01 dB -14.87 dB 3:46 03-Walk Of Life
DR12 -1.53 dB -16.78 dB 0:42 04-All I Have To Do Is Dream
DR12 -1.91 dB -16.03 dB 1:24 05-Bye, Bye, Love
DR12 -3.09 dB -17.51 dB 1:29 06-Wake Up Little Susie
DR15 0.00 dB -17.38 dB 6:31 07-Why Worry
DR12 -2.91 dB -17.24 dB 5:20 08-Precious Memories
DR13 -2.11 dB -18.80 dB 3:33 09-Waltz For The Lonely
DR13 0.00 dB -14.82 dB 4:46 10-I Keep Forgettin'
DR13 -1.70 dB -17.35 dB 3:53 11-Rose In Paradise
DR12 -2.17 dB -17.47 dB 3:38 12-Good Hearted Woman
DR12 -2.86 dB -16.86 dB 2:49 13-Island In The Sea
DR12 -3.79 dB -18.48 dB 3:43 14-Sunrise
DR13 -3.06 dB -20.00 dB 2:49 15-Imagine
DR12 -3.28 dB -18.53 dB 4:13 16-I Still Can't Say Goodbye
DR13 -1.69 dB -16.29 dB 4:12 17-Corrine, Corrina
--

Number of tracks: 17
Official DR value: DR13

Samplerate: 44100 Hz
Channels: 2
Bits per sample: 16
Bitrate: 832 kbps
Codec: FLAC

Chet Atkins & VA - Chet Atkins: Certified Guitar Player (2010) [Upgrade]

Chet Atkins & VA - Chet Atkins: Certified Guitar Player (2010) [Upgrade]

All thanks to original releaser - Alex Fal




DOWNLOAD LINKS:
Buy Premium From My Links To Get Resumable Support,Max Speed & Support Me


Links are Interchangeable - No Password - Single Extraction
Direct Download

Tags: Atkins, Atkins, Certified, Guitar, Player, Upgrade

Comments
Name:*
E-Mail:*
Add Comments:
Enter Code: *