Download Now

Riot - Sons Of Society (1999) [Japanese Ed.]

Riot - Sons Of Society (1999) [Japanese Ed.]
EAC Rip | FLAC: Image+Cue+Log | 409 Mb | MP3 CBR 320 kbps | 136 Mb | Scans | 79 Mb | Time: 52:59
Genre: Heavy Metal, Speed/Power Metal | Label: Toshiba-EMI Ltd. | Cat.№: TOCP-65264

""Sons Of Society" is the eleventh studio album by American heavy metal band Riot, released on September 7, 1999. Sons of Society continues Riot's move into a more European metal sound, strongly reminiscent of Rainbow and Thin Lizzy and tailored for the preferences of the Japanese market. It's a solid if unexceptional record, with all the well-executed craft of seasoned veterans and the rather conservative predictability of journeymen. Japan release comes with an exclusive bonus track: "QUEEN"."



Track Listing

1. Snake Charmer (01:04)
2. On The Wings Of Life (04:36)
3. Sons Of Society (04:26)
4. Twist Of Fate (05:36)
5. Bad Machine (05:07)
6. Cover Me (06:47)
7. Dragon Fire (03:38)
8. The Law (03:46)
9. Time To Bleed (04:38)
10. Queen (Bonus track for Japan) (04:28)
11. Somewhere (04:16)
12. Promises (04:35)

Produced by Mark Reale and Paul Orofino

The Band

* Mike DiMeo - lead vocals, hammond organ, keyboards
* Mark Reale (R.I.P. 2012) - electric and acoustic guitars, keyboards, percussion
* Mike Flyntz - electric guitar
* Pete Perez - bass guitar
* Bobby Jarzombek - drums

* Frank Carrillo - sitar, tamboura
* Tony Harnell, Burt Carey - backing vocals

Exact Audio Copy V1.0 beta 3 from 29. August 2011

EAC extraction logfile from 19. September 2014, 18:56

Riot / Sons of Society

Used drive : PIONEER DVD-RW DVR-111D Adapter: 4 ID: 1

Read mode : Secure
Utilize accurate stream : Yes
Defeat audio cache : Yes
Make use of C2 pointers : No

Read offset correction : 48
Overread into Lead-In and Lead-Out : No
Fill up missing offset samples with silence : Yes
Delete leading and trailing silent blocks : No
Null samples used in CRC calculations : Yes
Used interface : Native Win32 interface for Win NT & 2000

Used output format : User Defined Encoder
Selected bitrate : 128 kBit/s
Quality : High
Add ID3 tag : No
Command line compressor : F:\Program Files\FLAC\flac.exe
Additional command line options : -V -8 -T "Date=%year%" -T "Genre=%genre%" %source%

TOC of the extracted CD Track | Start | Length | Start sector | End sector
---
1 | 0:00.00 | 1:04.45 | 0 | 4844
2 | 1:04.45 | 4:36.02 | 4845 | 25546
3 | 5:40.47 | 4:26.00 | 25547 | 45496
4 | 10:06.47 | 5:36.03 | 45497 | 70699
5 | 15:42.50 | 5:06.72 | 70700 | 93721
6 | 20:49.47 | 6:47.00 | 93722 | 124246
7 | 27:36.47 | 3:38.35 | 124247 | 140631
8 | 31:15.07 | 3:46.38 | 140632 | 157619
9 | 35:01.45 | 4:38.02 | 157620 | 178471
10 | 39:39.47 | 4:28.00 | 178472 | 198571
11 | 44:07.47 | 4:16.00 | 198572 | 217771
12 | 48:23.47 | 4:35.33 | 217772 | 238429

Range status and errors

Selected range Filename D:\EAC - Hellixxx rip\Riot - 1999 - Sons of society (TOCP-65264).wav Peak level 100.0 %
Extraction speed 7.1 X
Range quality 100.0 %
Test CRC DA90801F
Copy CRC DA90801F
Copy OK

No errors occurred


AccurateRip summary

Track 1 accurately ripped (confidence 5) [5AFE4D62] (AR v2)
Track 2 accurately ripped (confidence 5) [C9840E8A] (AR v2)
Track 3 accurately ripped (confidence 5) [3EA362D2] (AR v2)
Track 4 accurately ripped (confidence 5) [CA8CCA2B] (AR v2)
Track 5 accurately ripped (confidence 5) [D0BB670F] (AR v2)
Track 6 accurately ripped (confidence 5) [4DA2EE41] (AR v2)
Track 7 accurately ripped (confidence 5) 6045241 (AR v2)
Track 8 accurately ripped (confidence 5) [6777BB4A] (AR v2)
Track 9 accurately ripped (confidence 5) [08D61287] (AR v2)
Track 10 accurately ripped (confidence 5) [4F39A4F4] (AR v2)
Track 11 accurately ripped (confidence 5) 36FCB1C (AR v2)
Track 12 accurately ripped (confidence 5) [99B20DDB] (AR v2)

All tracks accurately ripped

End of status report

==== Log checksum 17B0EC6FFD5A35D2ADD03EAE60E32C516BF52AC03C85454DBBC6B499EC3B2E7D ====

Many thanks to the original uploader: Hellixxx
DOWNLOAD LINKS:
Buy Premium From My Links To Get Resumable Support,Max Speed & Support Me


Links are Interchangeable - No Password - Single Extraction
Direct Download

Tags: Society, Japanese

Comments
Name:*
E-Mail:*
Add Comments:
Enter Code: *