Download Now

Stooshe - London With The Lights On (2013)
Stooshe - London With The Lights On (2013)
EAC | FLAC | Tracks (Cue&Log) ~ 401 Mb (incl 5%) | Mp3 (CBR320/Stereo) ~ 133 Mb (incl 5%) | Scans included

Genre: R&B, Pop | Label: Warner Bros. | # 5053105754229 | Time: 00:50:45
There are plenty of reasons to like Stooshe's debut album, which has arrived six months late after accusations of label "interference". Though the London girl-band aren't the badasses they pretend to be – if they were, they'd have refused to allow the track originally known as Fuck Me to be retitled Love Me – they have confidence and skills to spare. Listening to the album is akin to eavesdropping on a conversation between funny, trash-talking women who happen to sing like a trio of Beyoncés: it's a noisy, highly entertaining 50 minutes. There are juvenile ad-libs ("Hey diddle diddle, my cat needs a fiddle!" someone squawks on Love Me, and there's more of that sort of thing elsewhere) and outbreaks of beautiful harmonising, especially on the doo-wop pastiche Slip and the reggaeish My Man Music. And while the protagonist of Hoochi Mumma plays into Tory stereotypes (she's a single mother who's "in love with the social" and spends her benefits on booze), at least the song sets them apart from the media-trained pop hordes.
Review by Caroline Sullivan, The Guardian
Stooshe - London With The Lights On (2013)

Biography
Website
Wiki
Tracklist:
01. Slip (03:45)
02. Love Me (Featuring Travie McCoy) (03:05)
03. Black Heart (03:28)
04. Jimmy (03:43)
05. My Man Music (03:30)
06. Kiss Chase (03:17)
07. Round 2 (03:56)
08. Hoochi Mumma (03:36)
09. Your Own Kind Of Beautiful (03:36)
10. Put The Kettle On (04:01)
11. Perfectly Wrong (03:43)
12. See Me Like This (03:30)
13. Fly Again (04:13)
14. Turning Me On (03:16)

EAC extraction logfile from 15. May 2014, 23:16
Stooshe / London With The Lights On 2013
Used drive : HL-DT-STDVDRAM GSA-T50L Adapter: 1 ID: 0
Read mode : Secure
Utilize accurate stream : Yes
Defeat audio cache : Yes
Make use of C2 pointers : No
Read offset correction : 667
Overread into Lead-In and Lead-Out : No
Fill up missing offset samples with silence : Yes
Delete leading and trailing silent blocks : No
Null samples used in CRC calculations : Yes
Used interface : Native Win32 interface for Win NT & 2000
Gap handling : Appended to previous track
Used output format : User Defined Encoder
Selected bitrate : 1024 kBit/s
Quality : High
Add ID3 tag : No
Command line compressor : C:\Program Files\FLAC\flac.exe
Additional command line options : -8 -V -T "ARTIST=%artist%" -T "TITLE=%title%" -T "ALBUM=%albumtitle%" -T "DATE=%year%" -T "TRACKNUMBER=%tracknr%" -T "GENRE=%genre%" -T "PERFORMER=%albuminterpret%" -T "COMPOSER=%composer%" %haslyrics%--tag-from-file=LYRICS="%lyricsfile%"%haslyrics% -T "ALBUMARTIST=%albumartist%" -T "DISCNUMBER=%cdnumber%" -T "TOTALDISCS=%totalcds%" -T "TOTALTRACKS=%numtracks%" -T "COMMENT=%comment%" %source% -o %dest%
TOC of the extracted CD
Track | Start | Length | Start sector | End sector
---------------------------------------------------------
1 | 0:00.00 | 3:45.60 | 0 | 16934
2 | 3:45.60 | 3:05.44 | 16935 | 30853
3 | 6:51.29 | 3:28.33 | 30854 | 46486
4 | 10:19.62 | 3:43.20 | 46487 | 63231
5 | 14:03.07 | 3:30.66 | 63232 | 79047
6 | 17:33.73 | 3:17.42 | 79048 | 93864
7 | 20:51.40 | 3:56.48 | 93865 | 111612
8 | 24:48.13 | 3:36.66 | 111613 | 127878
9 | 28:25.04 | 3:36.02 | 127879 | 144080
10 | 32:01.06 | 4:01.16 | 144081 | 162171
11 | 36:02.22 | 3:43.06 | 162172 | 178902
12 | 39:45.28 | 3:30.25 | 178903 | 194677
13 | 43:15.53 | 4:13.00 | 194678 | 213652
14 | 47:28.53 | 3:16.01 | 213653 | 228353
Track 1
Filename C:\FLAC\01 Slip.wav
Pre-gap length 0:00:02.00
Peak level 99.5 %
Extraction speed 2.4 X
Track quality 100.0 %
Test CRC 205BD8FE
Copy CRC 205BD8FE
Accurately ripped (confidence 4) [EB13164B] (AR v2)
Copy OK
Track 2
Filename C:\FLAC\02 Love Me (Featuring Travie McCoy).wav
Peak level 99.8 %
Extraction speed 2.1 X
Track quality 99.9 %
Test CRC 2EB465A8
Copy CRC 2EB465A8
Accurately ripped (confidence 4) [13CB9BB6] (AR v2)
Copy OK
Track 3
Filename C:\FLAC\03 Black Heart.wav
Peak level 99.8 %
Extraction speed 2.7 X
Track quality 100.0 %
Test CRC 9B07E0DE
Copy CRC 9B07E0DE
Accurately ripped (confidence 4) [EEA992C0] (AR v2)
Copy OK
Track 4
Filename C:\FLAC\04 Jimmy.wav
Peak level 99.8 %
Extraction speed 3.0 X
Track quality 100.0 %
Test CRC 11B9FE3B
Copy CRC 11B9FE3B
Accurately ripped (confidence 4) [908EECFC] (AR v2)
Copy OK
Track 5
Filename C:\FLAC\05 My Man Music.wav
Pre-gap length 0:00:01.12
Peak level 99.8 %
Extraction speed 3.2 X
Track quality 100.0 %
Test CRC 03837085
Copy CRC 03837085
Accurately ripped (confidence 4) [D62F4B18] (AR v2)
Copy OK
Track 6
Filename C:\FLAC\06 Kiss Chase.wav
Peak level 99.9 %
Extraction speed 2.8 X
Track quality 99.9 %
Test CRC FDF20064
Copy CRC FDF20064
Accurately ripped (confidence 4) [84314337] (AR v2)
Copy OK
Track 7
Filename C:\FLAC\07 Round 2.wav
Peak level 93.3 %
Extraction speed 3.5 X
Track quality 100.0 %
Test CRC 0A1DDF7B
Copy CRC 0A1DDF7B
Accurately ripped (confidence 4) [944F80CE] (AR v2)
Copy OK
Track 8
Filename C:\FLAC\08 Hoochi Mumma.wav
Peak level 99.8 %
Extraction speed 3.7 X
Track quality 100.0 %
Test CRC 9511D5AC
Copy CRC 9511D5AC
Accurately ripped (confidence 4) [5A3D2ACE] (AR v2)
Copy OK
Track 9
Filename C:\FLAC\09 Your Own Kind Of Beautiful.wav
Peak level 99.9 %
Extraction speed 3.8 X
Track quality 100.0 %
Test CRC 5D478EFC
Copy CRC 5D478EFC
Accurately ripped (confidence 4) [3094FEDD] (AR v2)
Copy OK
Track 10
Filename C:\FLAC\10 Put The Kettle On.wav
Peak level 99.8 %
Extraction speed 4.0 X
Track quality 100.0 %
Test CRC 51A38893
Copy CRC 51A38893
Accurately ripped (confidence 4) [3619674A] (AR v2)
Copy OK
Track 11
Filename C:\FLAC\11 Perfectly Wrong.wav
Peak level 92.2 %
Extraction speed 3.6 X
Track quality 99.9 %
Test CRC 45992D57
Copy CRC 45992D57
Accurately ripped (confidence 4) [A9EED18D] (AR v2)
Copy OK
Track 12
Filename C:\FLAC\12 See Me Like This.wav
Pre-gap length 0:00:01.17
Peak level 99.8 %
Extraction speed 4.2 X
Track quality 100.0 %
Test CRC 7C68FD8A
Copy CRC 7C68FD8A
Accurately ripped (confidence 4) [667208A5] (AR v2)
Copy OK
Track 13
Filename C:\FLAC\13 Fly Again.wav
Pre-gap length 0:00:01.13
Peak level 99.8 %
Extraction speed 4.5 X
Track quality 100.0 %
Test CRC 7775AC6F
Copy CRC 7775AC6F
Accurately ripped (confidence 4) [481779EE] (AR v2)
Copy OK
Track 14
Filename C:\FLAC\14 Turning Me On.wav
Peak level 96.2 %
Extraction speed 4.5 X
Track quality 100.0 %
Test CRC C490B3B4
Copy CRC C490B3B4
Accurately ripped (confidence 4) [D532320F] (AR v2)
Copy OK
All tracks accurately ripped
No errors occurred
End of status report
==== Log checksum 32FD048F06817C803A8FFAD5614CE2601BA94657DDCB078CA072485E395E0079 ====
------------------------------------------------------------
Exact Audio Copy V1.0 beta 3 from 29. August 2011
EAC extraction logfile from 15. May 2014, 23:16
Stooshe / London With The Lights On 2013
Used drive : HL-DT-STDVDRAM GSA-T50L Adapter: 1 ID: 0
Read mode : Secure
Utilize accurate stream : Yes
Defeat audio cache : Yes
Make use of C2 pointers : No
Read offset correction : 667
Overread into Lead-In and Lead-Out : No
Fill up missing offset samples with silence : Yes
Delete leading and trailing silent blocks : No
Null samples used in CRC calculations : Yes
Used interface : Native Win32 interface for Win NT & 2000
Gap handling : Appended to previous track
Used output format : User Defined Encoder
Selected bitrate : 1024 kBit/s
Quality : High
Add ID3 tag : No
Command line compressor : C:\Program Files\FLAC\flac.exe
Additional command line options : -8 -V -T "ARTIST=%artist%" -T "TITLE=%title%" -T "ALBUM=%albumtitle%" -T "DATE=%year%" -T "TRACKNUMBER=%tracknr%" -T "GENRE=%genre%" -T "PERFORMER=%albuminterpret%" -T "COMPOSER=%composer%" %haslyrics%--tag-from-file=LYRICS="%lyricsfile%"%haslyrics% -T "ALBUMARTIST=%albumartist%" -T "DISCNUMBER=%cdnumber%" -T "TOTALDISCS=%totalcds%" -T "TOTALTRACKS=%numtracks%" -T "COMMENT=%comment%" %source% -o %dest%
TOC of the extracted CD
Track | Start | Length | Start sector | End sector
---------------------------------------------------------
1 | 0:00.00 | 3:45.60 | 0 | 16934
2 | 3:45.60 | 3:05.44 | 16935 | 30853
3 | 6:51.29 | 3:28.33 | 30854 | 46486
4 | 10:19.62 | 3:43.20 | 46487 | 63231
5 | 14:03.07 | 3:30.66 | 63232 | 79047
6 | 17:33.73 | 3:17.42 | 79048 | 93864
7 | 20:51.40 | 3:56.48 | 93865 | 111612
8 | 24:48.13 | 3:36.66 | 111613 | 127878
9 | 28:25.04 | 3:36.02 | 127879 | 144080
10 | 32:01.06 | 4:01.16 | 144081 | 162171
11 | 36:02.22 | 3:43.06 | 162172 | 178902
12 | 39:45.28 | 3:30.25 | 178903 | 194677
13 | 43:15.53 | 4:13.00 | 194678 | 213652
14 | 47:28.53 | 3:16.01 | 213653 | 228353
Track 1
Filename C:\FLAC\01 Slip.wav
Pre-gap length 0:00:02.00
Peak level 99.5 %
Extraction speed 2.4 X
Track quality 100.0 %
Test CRC 205BD8FE
Copy CRC 205BD8FE
Accurately ripped (confidence 4) [EB13164B] (AR v2)
Copy OK
Track 2
Filename C:\FLAC\02 Love Me (Featuring Travie McCoy).wav
Peak level 99.8 %
Extraction speed 2.1 X
Track quality 99.9 %
Test CRC 2EB465A8
Copy CRC 2EB465A8
Accurately ripped (confidence 4) [13CB9BB6] (AR v2)
Copy OK
Track 3
Filename C:\FLAC\03 Black Heart.wav
Peak level 99.8 %
Extraction speed 2.7 X
Track quality 100.0 %
Test CRC 9B07E0DE
Copy CRC 9B07E0DE
Accurately ripped (confidence 4) [EEA992C0] (AR v2)
Copy OK
Track 4
Filename C:\FLAC\04 Jimmy.wav
Peak level 99.8 %
Extraction speed 3.0 X
Track quality 100.0 %
Test CRC 11B9FE3B
Copy CRC 11B9FE3B
Accurately ripped (confidence 4) [908EECFC] (AR v2)
Copy OK
Track 5
Filename C:\FLAC\05 My Man Music.wav
Pre-gap length 0:00:01.12
Peak level 99.8 %
Extraction speed 3.2 X
Track quality 100.0 %
Test CRC 03837085
Copy CRC 03837085
Accurately ripped (confidence 4) [D62F4B18] (AR v2)
Copy OK
Track 6
Filename C:\FLAC\06 Kiss Chase.wav
Peak level 99.9 %
Extraction speed 2.8 X
Track quality 99.9 %
Test CRC FDF20064
Copy CRC FDF20064
Accurately ripped (confidence 4) [84314337] (AR v2)
Copy OK
Track 7
Filename C:\FLAC\07 Round 2.wav
Peak level 93.3 %
Extraction speed 3.5 X
Track quality 100.0 %
Test CRC 0A1DDF7B
Copy CRC 0A1DDF7B
Accurately ripped (confidence 4) [944F80CE] (AR v2)
Copy OK
Track 8
Filename C:\FLAC\08 Hoochi Mumma.wav
Peak level 99.8 %
Extraction speed 3.7 X
Track quality 100.0 %
Test CRC 9511D5AC
Copy CRC 9511D5AC
Accurately ripped (confidence 4) [5A3D2ACE] (AR v2)
Copy OK
Track 9
Filename C:\FLAC\09 Your Own Kind Of Beautiful.wav
Peak level 99.9 %
Extraction speed 3.8 X
Track quality 100.0 %
Test CRC 5D478EFC
Copy CRC 5D478EFC
Accurately ripped (confidence 4) [3094FEDD] (AR v2)
Copy OK
Track 10
Filename C:\FLAC\10 Put The Kettle On.wav
Peak level 99.8 %
Extraction speed 4.0 X
Track quality 100.0 %
Test CRC 51A38893
Copy CRC 51A38893
Accurately ripped (confidence 4) [3619674A] (AR v2)
Copy OK
Track 11
Filename C:\FLAC\11 Perfectly Wrong.wav
Peak level 92.2 %
Extraction speed 3.6 X
Track quality 99.9 %
Test CRC 45992D57
Copy CRC 45992D57
Accurately ripped (confidence 4) [A9EED18D] (AR v2)
Copy OK
Track 12
Filename C:\FLAC\12 See Me Like This.wav
Pre-gap length 0:00:01.17
Peak level 99.8 %
Extraction speed 4.2 X
Track quality 100.0 %
Test CRC 7C68FD8A
Copy CRC 7C68FD8A
Accurately ripped (confidence 4) [667208A5] (AR v2)
Copy OK
Track 13
Filename C:\FLAC\13 Fly Again.wav
Pre-gap length 0:00:01.13
Peak level 99.8 %
Extraction speed 4.5 X
Track quality 100.0 %
Test CRC 7775AC6F
Copy CRC 7775AC6F
Accurately ripped (confidence 4) [481779EE] (AR v2)
Copy OK
Track 14
Filename C:\FLAC\14 Turning Me On.wav
Peak level 96.2 %
Extraction speed 4.5 X
Track quality 100.0 %
Test CRC C490B3B4
Copy CRC C490B3B4
Accurately ripped (confidence 4) [D532320F] (AR v2)
Copy OK

All tracks accurately ripped
No errors occurred
End of status report
==== Log checksum 32FD048F06817C803A8FFAD5614CE2601BA94657DDCB078CA072485E395E0079 ====
log date: 2014-09-01 20:26:36
--------------------------------------------------------------------------------
Analyzed: Stooshe / London With The Lights On 2013
--------------------------------------------------------------------------------
DR Peak RMS Duration Track
--------------------------------------------------------------------------------
DR4 -0.04 dB -5.85 dB 3:46 01-Slip
DR5 -0.01 dB -6.08 dB 3:06 02-Love Me (Featuring Travie McCoy)
DR6 -0.01 dB -6.88 dB 3:28 03-Black Heart
DR5 -0.01 dB -6.14 dB 3:43 04-Jimmy
DR5 -0.01 dB -5.87 dB 3:31 05-My Man Music
DR4 -0.01 dB -5.93 dB 3:18 06-Kiss Chase
DR5 -0.60 dB -6.97 dB 3:57 07-Round 2
DR5 -0.01 dB -5.52 dB 3:37 08-Hoochi Mumma
DR6 -0.01 dB -6.76 dB 3:36 09-Your Own Kind Of Beautiful
DR4 -0.01 dB -5.58 dB 4:01 10-Put The Kettle On
DR4 -0.70 dB -6.35 dB 3:43 11-Perfectly Wrong
DR6 -0.01 dB -6.37 dB 3:30 12-See Me Like This
DR8 -0.01 dB -10.66 dB 4:13 13-Fly Again
DR4 -0.33 dB -5.29 dB 3:16 14-Turning Me On
--------------------------------------------------------------------------------
Number of tracks: 14
Official DR value: DR5
Samplerate: 44100 Hz
Channels: 2
Bits per sample: 16
Bitrate: 1056 kbps
Codec: FLAC
================================================================================
Stooshe - London With The Lights On (2013)

Stooshe - London With The Lights On (2013)

All thanks to original releaser - only1joe
More interesting music in My Blog
Stooshe - London With The Lights On (2013)
(Buy PREMIUM ACCOUNT = Fast and Unlimited Speed, Resume and No Wait)


Stooshe - London With The Lights On (2013)


All above links are interchangable. No password
Direct Download

Tags: Stooshe, London, Lights

Comments
Name:*
E-Mail:*
Add Comments:
Enter Code: *