Download Now

Struck By Lightening (2012) WebRip XviD Ac3 Feel-Free
Struck By Lightening 2012 WebRip XviD Ac3 Feel-Free | 1.27 GB


Genre:Comedy | Drama
Language:English
IMDb:http://www.imdb.com/title/tt1791614/
Source:1080p.WEB-DL CrazyHD Thanks
Encoder:Tony

Format/Info : Audio Video Interleave
File size : 1.27 GiB
Duration : 1h 23mn
Overall bit rate : 2 168 Kbps

Video
ID : 0
Format : MPEG-4 Visual
Format profile : Advanced [email protected]
Format settings, BVOP : 1
Format settings, QPel : No
Format settings, GMC : No warppoints
Format settings, Matrix : Default (H.263)
Codec ID : XVID
Codec ID/Hint : XviD
Duration : 1h 23mn
Bit rate : 1 775 Kbps
Width : 640 pixels
Height : 352 pixels
Display aspect ratio : 16:9
Frame rate : 23.976 fps
Color space : YUV
Chroma subsampling : 4:2:0
Bit depth : 8 bits
Scan type : Progressive
Compression mode : Lossy
Bits/(Pixel*Frame) : 0.329
Stream size : 1.04 GiB (82%)
Writing library : XviD 1.2.1 (UTC 2008-12-04)

Audio
ID : 1
Format : AC-3
Format/Info : Audio Coding 3
Mode extension : CM (complete main)
Codec ID : 2000
Duration : 1h 23mn
Bit rate mode : Constant
Bit rate : 384 Kbps
Channel(s) : 6 channels
Channel positions : Front: L C R, Side: L R, LFE
Sampling rate : 48.0 KHz
Bit depth : 16 bits
Compression mode : Lossy
Stream size : 231 MiB (18%)
Alignment : Aligned on interleaves
Interleave, duration : 42 ms (1.00 video frame)
Interleave, preload duration : 512 ms

Plot:
After being struck and killed by lightning, a young man recounts the way he blackmailed his fellow classmates into contributing to his literary magazine


Direct Download

Tags: WebRip, Lightening, Struck

Comments
Name:*
E-Mail:*
Add Comments:
Enter Code: *