Download Now

Alex Cross (2012) CAM x264 AC3-BBnRG
Alex Cross (2012) CAM x264 AC3-BBnRG | 575 MB


Info
Format : Matroska
Format version : Version 2
File size : 575 MiB
Duration : 1h 33mn
Overall bit rate : 859 Kbps

Video
ID : 1
Format : AVC
Format/Info : Advanced Video Codec
Format profile : [email protected]
Format settings, CABAC : Yes
Format settings, ReFrames : 6 frames
Codec ID : V_MPEG4/ISO/AVC
Duration : 1h 33mn
Bit rate : 725 Kbps
Width : 720 pixels
Height : 368 pixels
Display aspect ratio : 1.957
Frame rate mode : Variable
Frame rate : 29.970 fps
Color space : YUV
Chroma subsampling : 4:2:0
Bit depth : 8 bits
Scan type : Progressive
Bits/(Pixel*Frame) : 0.091
Stream size : 478 MiB (83%)
Writing library : x264 core 112

Audio
ID : 2
Format : AC-3
Format/Info : Audio Coding 3
Mode extension : CM (complete main)
Codec ID : A_AC3
Duration : 1h 33mn
Bit rate mode : Constant
Bit rate : 128 Kbps
Channel(s) : 2 channels
Channel positions : Front: L R
Sampling rate : 48.0 KHz
Bit depth : 16 bits
Compression mode : Lossy
Stream size : 85.8 MiB (15%)

===================================================================================================
Title: Alex Cross (2012)

101 min - Action | Crime | Mystery

Plot:
A homicide detective is pushed to the brink of his moral and physical limits as he tangles with a
ferociously skilled serial killer who specializes in torture and pain.

IMDb Link: http://www.imdb.com/title/tt1712170/


Direct Download
Comments
Name:*
E-Mail:*
Add Comments:
Enter Code: *