Download Now

http://i.imm.io/CnAH.jpeg
I Melt With You-Dvdrip-Xvid-MRFIXIT | 680.14 MB



Genre:
Drama

Actors:
Thomas Jane, Rob Lowe, Jeremy Piven

Plot:
When four 40-something college friends meet up for their annual reunion, things start to spiral out of control, and a pact they made as young men is revisited.

General Info:
Complete name : C:I Melt With You-Dvdrip-Xvid-MRFIXIT.avi
Format : AVI
Format/Info : Audio Video Interleave
File size : 670 MiB
Duration : 1h 18mn
Overall bit rate : 1 198 Kbps
Writing application : MEncoder SVN-r22963
Writing library : MPlayer

Video:
ID : 0
Format : MPEG-4 Visual
Format profile : [email protected]
Format settings, BVOP : No
Format settings, QPel : No
Format settings, GMC : No warppoints
Format settings, Matrix : Default (H.263)
Codec ID : XVID
Codec ID/Hint : XviD
Duration : 1h 18mn
Bit rate : 1 058 Kbps
Width : 720 pixels
Height : 384 pixels
Display aspect ratio : 1.85:1
Frame rate : 25.000 fps
Color space : YUV
Chroma subsampling : 4:2:0
Bit depth : 8 bits
Scan type : Progressive
Compression mode : Lossy
Bits/(Pixel*Frame) : 0.153
Stream size : 591 MiB (88%)
Writing library : Lavc51.40.2

Audio:
ID : 1
Format : MPEG Audio
Format version : Version 1
Format profile : Layer 3
Codec ID : 55
Codec ID/Hint : MP3
Duration : 1h 18mn
Bit rate mode : Constant
Bit rate : 128 Kbps
Channel(s) : 2 channels
Sampling rate : 44.1 KHz
Compression mode : Lossy
Stream size : 71.5 MiB (11%)
Alignment : Aligned on interleaves
Interleave, duration : 26 ms (0.65 video frame)
Interleave, preload duration : 522 ms
Writing library : LAME3.97


http://imgcrave.com/u/yPJjC.gif
(Buy premium account for maximum speed and resumming ability)

Lumfile:
http://lumfile.com/mv7r9jl6o3qa/I.Melt.With.YouDvdripXvidMRFIXIT.rar.html

Extabit:
http://extabit.com/file/27avswxybw1bf/I.Melt.With.YouDvdripXvidMRFIXIT.rar


Links are Interchangeable - No Password - Single Extraction
Direct Download

Tags: MRFIXIT, Dvdrip

Comments
Name:*
E-Mail:*
Add Comments:
Enter Code: *