Download Now

http://i.imm.io/Bztk.jpeg
Think Like A Man 2012 BDRip XVID AC3 HQ Hive-CM8 | 1.85 GB



General
Complete name : Think.Like.A.Man.2012.BDRip.XVID.AC3.HQ.Hive-CM8.avi
Format : AVI
Format/Info : Audio Video Interleave
File size : 1.84 GiB
Duration : 2h 2mn
Overall bit rate : 2 157 Kbps
Writing application : Nandub v1.0rc2
Writing library : Nandub build 1853/release

Video
ID : 0
Format : MPEG-4 Visual
Format profile : Advanced [email protected]
Format settings, BVOP : 1
Format settings, QPel : Yes
Format settings, GMC : No warppoints
Format settings, Matrix : Default (H.263)
Muxing mode : Packed bitstream
Codec ID : XVID
Codec ID/Hint : XviD
Duration : 2h 2mn
Bit rate : 1 700 Kbps
Width : 720 pixels
Height : 304 pixels
Display aspect ratio : 2.40:1
Frame rate : 23.976 fps
Color space : YUV
Chroma subsampling : 4:2:0
Bit depth : 8 bits
Scan type : Progressive
Compression mode : Lossy
Bits/(Pixel*Frame) : 0.324
Stream size : 1.45 GiB (79%)
Writing library : XviD 1.2.1 (UTC 2008-12-04)

Audio
ID : 1
Format : AC-3
Format/Info : Audio Coding 3
Mode extension : CM (complete main)
Format settings, Endianness : Big
Codec ID : 2000
Duration : 2h 2mn
Bit rate mode : Constant
Bit rate : 448 Kbps
Channel(s) : 6 channels
Channel positions : Front: L C R, Side: L R, LFE
Sampling rate : 48.0 KHz
Bit depth : 16 bits
Compression mode : Lossy
Stream size : 391 MiB (21%)
Alignment : Split accross interleaves
Interleave, duration : 42 ms (1.00 video frame)
Interleave, preload duration : 500 ms

Plot:
Four friends conspire to turn the tables on their women when they discover
the ladies have been using Steve Harvey's relationship advice against them.

Cast:
Chris Brown ... Alex
Gabrielle Union ... Kristen
Kevin Hart ... Cedric
Jerry Ferrara ... Jeremy


Download link:
(Buy premium account for maximum speed and resumming ability)


Extabit:
http://extabit.com/file/27b76mgt44ubx/Think.Like.A.Man.2012.BDRip.XVID.AC3.HQ.HiveCM8.rar

Netload:
http://www.netload.in/dateiOMD3Cjvpm8/Think.Like.A.Man.2012.BDRip.XVID.AC3.HQ.HiveCM8.rar.htm

Lumfile:
http://lumfile.com/0s6mji6zzsiw/Think.Like.A.Man.2012.BDRip.XVID.AC3.HQ.HiveCM8.rar.html


Links are Interchangeable - No Password - Single Extraction
Direct Download
Comments
Name:*
E-Mail:*
Add Comments:
Enter Code: *