Download Now


BBC - Becoming Mr Nice (2011)
BBC - Becoming Mr Nice (2011)
HDTV | 1280x720 | .MKV/AVC @ 1513 Kbps | 29mn 0s | 361 MiB
Audio: English AC3 192 kbps, 2 channels | Subs: None
Genre: Documentary

Documentary looking at the life story of Howard Marks and his biopic starring Rhys Ifans.

MediaInfo



General
Unique ID : 234891412265025661192180512792688814317 (0xB0B670C1BA7DAF274314EDC0F4C168ED)
Complete name : becoming.mr.nice.mkv
Format : Matroska
Format version : Version 4 / Version 2
File size : 361 MiB
Duration : 29mn 0s
Overall bit rate : 1 740 Kbps

Video
ID : 1
Format : AVC
Format/Info : Advanced Video Codec
Format profile : [email protected]
Format settings, CABAC : Yes
Format settings, ReFrames : 5 frames
Codec ID : V_MPEG4/ISO/AVC
Duration : 29mn 0s
Bit rate : 1 513 Kbps
Width : 1 280 pixels
Height : 720 pixels
Display aspect ratio : 16:9
Frame rate mode : Constant
Frame rate : 25.000 fps
Color space : YUV
Chroma subsampling : 4:2:0
Bit depth : 8 bits
Scan type : Progressive
Bits/(Pixel*Frame) : 0.066
Stream size : 314 MiB (87%)
Writing library : x264 core 148 r2694 3b70645
Encoding settings : cabac=1 / ref=5 / deblock=1:0:0 / analyse=0x3:0x113 / me=umh / subme=8 / psy=1 / psy_rd=1.00:0.00 / mixed_ref=1 / me_range=16 / chroma_me=1 / trellis=1 / 8x8dct=1 / cqm=0 / deadzone=21,11 / fast_pskip=1 / chroma_qp_offset=-2 / threads=6 / lookahead_threads=2 / sliced_threads=0 / nr=0 / decimate=1 / interlaced=0 / bluray_compat=0 / constrained_intra=0 / bframes=3 / b_pyramid=2 / b_adapt=2 / b_bias=0 / direct=3 / weightb=1 / open_gop=0 / weightp=2 / keyint=250 / keyint_min=25 / scenecut=40 / intra_refresh=0 / rc_lookahead=50 / rc=crf / mbtree=1 / crf=21.0 / qcomp=0.60 / qpmin=0 / qpmax=69 / qpstep=4 / ip_ratio=1.40 / aq=1:1.00
Default : Yes
Forced : No
Color range : Limited
Matrix coefficients : BT.709

Audio
ID : 2
Format : AC-3
Format/Info : Audio Coding 3
Mode extension : CM (complete main)
Format settings, Endianness : Big
Codec ID : A_AC3
Duration : 29mn 0s
Bit rate mode : Constant
Bit rate : 192 Kbps
Channel(s) : 2 channels
Channel positions : Front: L R
Sampling rate : 48.0 KHz
Compression mode : Lossy
Stream size : 39.8 MiB (11%)
Default : Yes
Forced : No


Screenshots:

BBC - Becoming Mr Nice (2011)
BBC - Becoming Mr Nice (2011)
BBC - Becoming Mr Nice (2011)
BBC - Becoming Mr Nice (2011)


Buy Premium Account To Get Resumable Support & Max Speed

DOWNLOAD LINK


Links are Interchangeable - Single Extraction - Premium is support resumable
Direct Download

Tags: Becoming

Comments
Name:*
E-Mail:*
Add Comments:
Enter Code: *