Download Now


River Monsters: Deadly Superstitions (2016)
River Monsters: Deadly Superstitions (2016)
HDTV | 1280x720 | .MKV/AVC @ 2729 Kbps | 40mn 46s | 926 MiB
Audio: English AC3 384 kbps, 6 channels | Subs: English
Genre: Documentary

Jeremy's adventures have brought him an impressive haul of freshwater monsters, but his angling investigations have also immersed him in unique cultures around the globe. Jeremy looks back at some of the most memorable moments in his fishing career and asks if unseen forces could explain some of his greatest catches.

MediaInfo



General
Unique ID : 228621714488840404662077297906708177868 (0xABFEF0CA514A688588F93F8A9850E3CC)
Complete name : River.Monsters.S08E04.Deadly.Superstitions.mkv
Format : Matroska
Format version : Version 4 / Version 2
File size : 926 MiB
Duration : 40mn 46s
Overall bit rate : 3 176 Kbps

Video
ID : 1
Format : AVC
Format/Info : Advanced Video Codec
Format profile : [email protected]
Format settings, CABAC : Yes
Format settings, ReFrames : 5 frames
Codec ID : V_MPEG4/ISO/AVC
Duration : 40mn 46s
Bit rate : 2 729 Kbps
Width : 1 280 pixels
Height : 720 pixels
Display aspect ratio : 16:9
Frame rate mode : Constant
Frame rate : 25.000 fps
Color space : YUV
Chroma subsampling : 4:2:0
Bit depth : 8 bits
Scan type : Progressive
Bits/(Pixel*Frame) : 0.118
Stream size : 796 MiB (86%)
Writing library : x264 core 148 r2694 3b70645
Encoding settings : cabac=1 / ref=5 / deblock=1:0:0 / analyse=0x3:0x113 / me=umh / subme=8 / psy=1 / psy_rd=1.00:0.00 / mixed_ref=1 / me_range=16 / chroma_me=1 / trellis=1 / 8x8dct=1 / cqm=0 / deadzone=21,11 / fast_pskip=1 / chroma_qp_offset=-2 / threads=12 / lookahead_threads=2 / sliced_threads=0 / nr=0 / decimate=1 / interlaced=0 / bluray_compat=0 / constrained_intra=0 / bframes=3 / b_pyramid=2 / b_adapt=2 / b_bias=0 / direct=3 / weightb=1 / open_gop=0 / weightp=2 / keyint=250 / keyint_min=25 / scenecut=40 / intra_refresh=0 / rc_lookahead=50 / rc=crf / mbtree=1 / crf=21.0 / qcomp=0.60 / qpmin=0 / qpmax=69 / qpstep=4 / ip_ratio=1.40 / aq=1:1.00
Default : Yes
Forced : No
Color range : Limited
Matrix coefficients : BT.709

Audio
ID : 2
Format : AC-3
Format/Info : Audio Coding 3
Mode extension : CM (complete main)
Format settings, Endianness : Big
Codec ID : A_AC3
Duration : 40mn 46s
Bit rate mode : Constant
Bit rate : 384 Kbps
Channel(s) : 6 channels
Channel positions : Front: L C R, Side: L R, LFE
Sampling rate : 48.0 KHz
Compression mode : Lossy
Stream size : 112 MiB (12%)
Default : Yes
Forced : No

Text
ID : 3
Format : UTF-8
Codec ID : S_TEXT/UTF8
Codec ID/Info : UTF-8 Plain Text
Language : English
Default : No
Forced : No


Screenshots:

River Monsters: Deadly Superstitions (2016)
River Monsters: Deadly Superstitions (2016)
River Monsters: Deadly Superstitions (2016)
River Monsters: Deadly Superstitions (2016)


Buy Premium Account To Get Resumable Support & Max Speed

DOWNLOAD LINK


Links are Interchangeable - Single Extraction - Premium is support resumable
Direct Download

Tags: Monsters, Deadly, Superstitions

Comments
Name:*
E-Mail:*
Add Comments:
Enter Code: *