Download Now


BBC - The Farmer and the Food Chain: Series 1 (2015)
BBC - The Farmer and the Food Chain: Series 1 (2015)
HDTV | 1280x720 | .MP4/AVC @ 2984 Kbps | 3x~28min | Audio: English AAC 160 kbps, 2 channels | Subs: English | 1.90 GiB
Genre: Documentary

Series following hill farmer Gareth Wyn Jones as he goes on a mission to explore the Welsh food industry and discover whether Wales can change the way it feeds itself. Mali Harries narrates.
Part 1:
Farmer Gareth Wyn Jones explores the Welsh food industry to find out whether the country can change the way it feeds itself. His intention is to open a pop-up shop selling nothing but local produce to see if there is an appetite for it. His first stop is a small fishing cove on the Llyn Peninsula, where he heads out to sea with fishermen.

Part 2:
Gareth Wyn Jones visits butcher Ieuan Edwards' factory to find out what it is like working with big business and even tries his hand making a sausage or two. The farmer also explores the price war on milk, while retail giant Tesco agrees to let him track one of its products from supplier to store, so he hits the road to follow the supermarket supply chain. Mali Harries narrates.

Part 3:
Every year, Welsh schools, hospitals and other public bodies spend more than 70million on food and Gareth Wyn Jones thinks the Government should be helping Welsh farmers and food producers by buying local. To see if it is possible to feed the public with locally sourced food, Gareth sets out to feed an inner-city school using ingredients produced within 50 miles.

General
Complete name : BBC.The.Farmer.And.The.Food.Chain.Series.1.1of3.mp4
Format : MPEG-4
Format profile : Base Media
Codec ID : isom
File size : 643 MiB
Duration : 28mn 53s
Overall bit rate mode : Variable
Overall bit rate : 3 109 Kbps

Video
ID : 1
Format : AVC
Format/Info : Advanced Video Codec
Format profile : [email protected]
Format settings, CABAC : No
Format settings, ReFrames : 1 frame
Format settings, GOP : M=1, N=12
Codec ID : avc1
Codec ID/Info : Advanced Video Coding
Duration : 28mn 33s
Bit rate : 2 984 Kbps
Maximum bit rate : 10.6 Mbps
Width : 1 280 pixels
Height : 720 pixels
Display aspect ratio : 16:9
Frame rate mode : Constant
Frame rate : 25.000 fps
Color space : YUV
Chroma subsampling : 4:2:0
Bit depth : 8 bits
Scan type : Progressive
Bits/(Pixel*Frame) : 0.130
Stream size : 609 MiB (95%)
Encoded date : UTC 2015-09-04 21:44:11
Tagged date : UTC 2015-09-05 12:34:48

Audio
ID : 2
Format : AAC
Format/Info : Advanced Audio Codec
Format profile : LC
Codec ID : 40
Duration : 28mn 33s
Bit rate mode : Variable
Bit rate : 160 Kbps
Maximum bit rate : 233 Kbps
Channel(s) : 2 channels
Channel positions : Front: L R
Sampling rate : 48.0 KHz
Compression mode : Lossy
Stream size : 32.6 MiB (5%)
Encoded date : UTC 2015-09-05 12:34:46
Tagged date : UTC 2015-09-05 12:34:48

Text
ID : 3
Format : Timed Text
Codec ID : tx3g
Duration : 28mn 53s
Bit rate mode : Variable
Bit rate : 109 bps
Stream size : 23.0 KiB (0%)
Encoded date : UTC 2015-09-05 12:34:48
Tagged date : UTC 2015-09-05 12:34:48

Screenshots:

BBC - The Farmer and the Food Chain: Series 1 (2015)

BBC - The Farmer and the Food Chain: Series 1 (2015)

BBC - The Farmer and the Food Chain: Series 1 (2015)

BBC - The Farmer and the Food Chain: Series 1 (2015)


Buy Premium Account To Get Resumable Support & Max Speed

DOWNLOAD LINK

Links are Interchangeable - No Password - Single Extraction
Direct Download

Tags: Farmer, Series

Comments
Name:*
E-Mail:*
Add Comments:
Enter Code: *