Download Now

Sharknado 3 Oh Hell No 2015 UNCUT BRRip x264-MenaceIISociety
Sharknado 3 Oh Hell No 2015 UNCUT BRRip x264-MenaceIISociety
LinkIMDb:

http://www.imdb.com/title/tt3899796/




STORYLiNE:

A monstrous tornado unleashes ravenous sharks from Washington, D.C., all the way down to Orlando, Florida.


INFORMATION:

Language :English
Video
ID: 1
Format: AVC
Format/Info: Advanced Video Codec
Format profile: [email protected]
Format settings, CABAC: Yes
Format settings, ReFrames: 3 frames
Codec ID: avc1
Codec ID/Info: Advanced Video Coding
Duration: 1h 28mn
Bit rate mode: Variable
Bit rate: 1 220 Kbps
Maximum bit rate: 40.0 Mbps
Width: 720 pixels
Height: 400 pixels
Display aspect ratio: 16:9
Frame rate mode: Constant
Frame rate: 23.976 fps
Color space: YUV
Chroma subsampling: 4:2:0
Bit depth: 8 bits
Scan type: Progressive
Bits/(Pixel*Frame): 0.177
Stream size: 776 MiB (77%)
Writing library: x264 core 148 r2579 73ae2d1

Audio
ID: 2
Format: AAC
Format/Info: Advanced Audio Codec
Format profile: LC
Codec ID: 40
Duration: 1h 28mn
Bit rate mode: Variable
Bit rate: 353 Kbps
Maximum bit rate: 399 Kbps
Channel(s): 6 channels
Channel positions: Front: L C R, Side: L R, LFE
Sampling rate: 48.0 KHz
Compression mode: Lossy
Stream size: 224 MiB (22%)
Language: English
Encoded date: UTC 2015-08-25 20:40:56
Tagged date: UTC 2015-08-25 20:56:13  
Genre: Horror, Sci-Fi

SCREENSHOTS:
Sharknado 3 Oh Hell No 2015 UNCUT BRRip x264-MenaceIISociety
Sharknado 3 Oh Hell No 2015 UNCUT BRRip x264-MenaceIISociety
Sharknado 3 Oh Hell No 2015 UNCUT BRRip x264-MenaceIISociety
Sharknado 3 Oh Hell No 2015 UNCUT BRRip x264-MenaceIISociety
-:DOWNLOAD FROM LINKS:-
Nitroflare


Rapidgator


Uploaded


Don't forget to say Thanks !!!
Direct Download

Tags: Sharknado, MenaceIISociety

Comments
Name:*
E-Mail:*
Add Comments:
Enter Code: *