Download Now


BBC - Atlantic: The Wildest Ocean on Earth (2015)
BBC - Atlantic: The Wildest Ocean on Earth (2015)
HDTV | 1280x720 | .MP4/AVC @ 3020 Kbps | 3x~59min | Audio: English AAC 160 kbps, 2 channels | Subs: English | 3.92 GiB
Genre: Documentary

Powerful currents, fierce hurricanes and undersea volcanoes make the Atlantic incredibly rich in life, but only if you can survive its challenges.
Part 1: Life Stream
In the wild North Atlantic, massive whale pods, giant turtles and monstrous jellyfish ride the Gulf Stream, a huge ocean current that becomes a migration superhighway and helps warm northern Europe. Meanwhile, fishermen battle for survival in mountainous seas as they try to reap the current's natural fertility.

Part 2: Mountains of the Deep
In the vast South Atlantic, huge pods of dolphins, massive penguin colonies and the largest gathering of marine mammals on earth pack chains of extraordinary islands, created by powerful volcanic forces far below them. Nutrient-rich upwellings create profusions of life in some areas, whilst extreme isolation and abyssal depths host a world of bizarre creatures in others.

Part 3: From Heaven to Hell
In the balmy tropical Atlantic, everything from dolphins, manatees and whale sharks to sunbathing jellyfish thrive in the Caribbean's warm, sheltered waters, fringed with coral reefs and rich mangrove forests. But extreme heat in Africa unleashes terrifying hurricanes, causing chaos across the region.

General
Complete name : BBC.Atlantic.The.Wildest.Ocean.on.Earth.1of3.Life.Stream.mp4
Format : MPEG-4
Format profile : Base Media
Codec ID : isom
File size : 1.32 GiB
Duration : 59mn 15s
Overall bit rate mode : Variable
Overall bit rate : 3 182 Kbps

Video
ID : 1
Format : AVC
Format/Info : Advanced Video Codec
Format profile : [email protected]
Format settings, CABAC : No
Format settings, ReFrames : 1 frame
Format settings, GOP : M=1, N=12
Codec ID : avc1
Codec ID/Info : Advanced Video Coding
Duration : 59mn 15s
Bit rate : 3 020 Kbps
Maximum bit rate : 14.0 Mbps
Width : 1 280 pixels
Height : 720 pixels
Display aspect ratio : 16:9
Frame rate mode : Constant
Frame rate : 25.000 fps
Color space : YUV
Chroma subsampling : 4:2:0
Bit depth : 8 bits
Scan type : Progressive
Bits/(Pixel*Frame) : 0.131
Stream size : 1.25 GiB (95%)
Encoded date : UTC 2015-08-13 13:58:15
Tagged date : UTC 2015-08-13 18:44:25

Audio
ID : 2
Format : AAC
Format/Info : Advanced Audio Codec
Format profile : LC
Codec ID : 40
Duration : 59mn 15s
Bit rate mode : Variable
Bit rate : 160 Kbps
Maximum bit rate : 238 Kbps
Channel(s) : 2 channels
Channel positions : Front: L R
Sampling rate : 48.0 KHz
Compression mode : Lossy
Stream size : 67.8 MiB (5%)
Encoded date : UTC 2015-08-13 18:44:20
Tagged date : UTC 2015-08-13 18:44:25

Text
ID : 3
Format : Timed text
Codec ID : tx3g
Duration : 58mn 41s
Bit rate mode : Variable
Bit rate : 69 bps
Stream size : 29.6 KiB (0%)
Encoded date : UTC 2015-08-13 18:44:25
Tagged date : UTC 2015-08-13 18:44:25

Screenshots:

BBC - Atlantic: The Wildest Ocean on Earth (2015)

BBC - Atlantic: The Wildest Ocean on Earth (2015)

BBC - Atlantic: The Wildest Ocean on Earth (2015)

BBC - Atlantic: The Wildest Ocean on Earth (2015)


Buy Premium Account To Get Resumable Support & Max Speed

BBC - Atlantic: The Wildest Ocean on Earth (2015)

Links are Interchangeable - No Password - Single Extraction
Direct Download

Tags: Atlantic, Wildest

Comments
Name:*
E-Mail:*
Add Comments:
Enter Code: *