Download Now


Alice in Wonderland [2013][3D OU FULL 1080p]

Original title Alice in Wonderland
Ano 2010
Duration 108 min.
Country United States
Director Tim Burton
Screenplay Linda Woolverton (Novel: Lewis Carroll)
Music Danny Elfman
Photography Dariusz Wolski
Starring Mia Wasikowska, Johnny Depp, Helena Bonham Carter, Anne Hathaway, Crispin Glover, Matt Lucas, Marton Csokas, Tim Pigott-Smith, Lindsay Duncan, Geraldine James, Frances de la Tour, Jemma Powell, John Hopkins, Eleanor Gecks, Eleanor Tomlinson
Producer Tim Burton Animation Co. / Walt Disney Productions
Gender Fantastico. Animation. Adventures | Tales. 3-D
Synopsis Inspired by the novel by Lewis Carroll. Alice (Mia Wasikowska), a young woman of 19 years, came to a Victorian mansion to attend a high society party. When about to publicly receive a marriage proposal, he runs after a white rabbit and goes to the Land of Wonders, a place I had visited ten years before, although I no longer remember. That country was a peaceful kingdom until the Red Queen (Helena Bonham Carter) overthrew her sister, the White Queen (Anne Hathaway), but the creatures that live in it, are willing to rebel and hope to have the help of Alice, which help you remember your first visit to the fantastic realm.



Format : Matroska
Format version : Version 4 / Version 2
File size : 2.96 GiB
Duration : 1h 48mn
Overall bit rate : 3 906 Kbps
Movie name : Alicia en El Pais de Las Maravillas (2010) 3D OU FULL 1080p
Encoded date : UTC 2014-05-06 20:21:04
Writing application : mkvmerge v6.0.0 (Coming Up For Air) built on Jan 20 2013 09:52:00
Writing library : libebml v1.3.0 + libmatroska v1.4.0
Video
ID : 1
Format : AVC
Format/Info : Advanced Video Codec
Format profile : [email protected]
Format settings, CABAC : Yes
Format settings, ReFrames : 2 frames
Codec ID : V_MPEG4/ISO/AVC
Duration : 1h 48mn
Bit rate : 2 932 Kbps
Width : 1 920 pixels
Height : 1 080 pixels
Display aspect ratio : 16:9
Frame rate mode : Constant
Frame rate : 23.976 fps
Color space : YUV
Chroma subsampling : 4:2:0
Bit depth : 8 bits
Scan type : Progressive
Bits/(Pixel*Frame) : 0.059
Stream size : 2.22 GiB (75%)
Writing library : x264 core
Default : Yes
Forced : No
Color primaries : BT.709
Transfer characteristics : BT.709
Matrix coefficients : BT.709
Audio #1
ID : 2
Format : AC-3
Format/Info : Audio Coding 3
Mode extension : CM (complete main)
Format settings, Endianness : Big
Codec ID : A_AC3
Duration : 1h 48mn
Bit rate mode : Constant
Bit rate : 448 Kbps
Channel count : 6 channels
Channel positions : Front: L C R, Side: L R, LFE
Sampling rate : 48.0 KHz
Bit depth : 16 bits
Compression mode : Lossy
Stream size : 348 MiB (11%)
Title : Audio Latino
Language : Spanish
Default : Yes
Forced : No
Audio #2
ID : 3
Format : AC-3
Format/Info : Audio Coding 3
Mode extension : CM (complete main)
Format settings, Endianness : Big
Codec ID : A_AC3
Duration : 1h 48mn
Bit rate mode : Constant
Bit rate : 448 Kbps
Channel count : 6 channels
Channel positions : Front: L C R, Side: L R, LFE
Sampling rate : 48.0 KHz
Bit depth : 16 bits
Compression mode : Lossy
Stream size : 348 MiB (11%)
Title : Audio Ingles
Language : English
Default : No
Forced : No
Text #1
ID : 4
Format : UTF-8
Codec ID : S_TEXT/UTF8
Codec ID/Info : UTF-8 Plain Text
Default : Yes
Forced : No
Text #2
ID : 5
Format : VobSub
Muxing mode : zlib
Codec ID : S_VOBSUB
Codec ID/Info : The same subtitle format used on DVDs
Title : Subtitulos Latino
Language : Spanish
Default : No
Forced : No
Text #3
ID : 6
Format : VobSub
Muxing mode : zlib
Codec ID : S_VOBSUB
Codec ID/Info : The same subtitle format used on DVDs
Title : Subtitulos Ingles
Language : English
Default : No
Forced : No


Alice in Wonderland [2013][3D OU FULL 1080p]
Alice in Wonderland [2013][3D OU FULL 1080p]

Alice in Wonderland [2013][3D OU FULL 1080p]


http://www.uploadable.ch/file/AddNTsuGdmTC/alipmar3d.part01.rar
http://www.uploadable.ch/file/WUA6HtY8f47s/alipmar3d.part02.rar
http://www.uploadable.ch/file/WzPJz4wTyUny/alipmar3d.part03.rar
http://www.uploadable.ch/file/etzwDYGpPNDD/alipmar3d.part04.rar
http://www.uploadable.ch/file/Hzp87jKQSGKh/alipmar3d.part05.rar
http://www.uploadable.ch/file/egj5Ghwg9pqQ/alipmar3d.part06.rar
http://www.uploadable.ch/file/uYG7ZCvm7ZQf/alipmar3d.part07.rar
http://www.uploadable.ch/file/YkqD2V5tWtYM/alipmar3d.part08.rar
http://www.uploadable.ch/file/7YQN4cZaujQJ/alipmar3d.part09.rar
http://www.uploadable.ch/file/gTcCjaDADWzT/alipmar3d.part10.rar
http://www.uploadable.ch/file/PXv3uNrTy2hr/alipmar3d.part11.rar
http://www.uploadable.ch/file/Qrr7DfaGWy7z/alipmar3d.part12.rar
http://www.uploadable.ch/file/ytWAXzWpJnJd/alipmar3d.part13.rar
Direct Download

Tags: Wonderland

Comments
Name:*
E-Mail:*
Add Comments:
Enter Code: *