Download Now


The Protector 2 [2013][3D OU Full 1080pp]

Tom yum goong Original title 2 (The Protector 2)
Year 2013
Duration 103 min.
Country Thailand
Director Prachya Pinkaew
Guion Prachya Pinkaew
Starring Tony Jaa, Jeeja Yanin, Mum Jokmok, Dan Chupong, Eddie Ruiz, Marrese Crump, Edgar Vargas, Ujal Thapa, Vince Makiling, RZA, Raiden Integra
Studio Sahamongkolfilm Co.
Genre Action | Martial Arts. Sequel. 3-D
Synopsis Sequel "The Protector"..



General
Complete name : The Protector 2 (2013) 3D OU FULL 1080p.mkv
Format : Matroska
Format version : Version 2
File size : 3.55 GiB
Duration : 1h 44mn
Overall bit rate : 4 867 Kbps
Movie name : The Protector 2 (2013) 3D OU FULL 1080p
Encoded date : UTC 2014-08-05 23:42:01
Writing application : mkvmerge v5.7.0 ('The Whirlwind') built on Jul 8 2012 20:08:51
Writing library : libebml v1.2.3 + libmatroska v1.3.0
Video
ID : 1
Format : AVC
Format/Info : Advanced Video Codec
Format profile : [email protected]
Format settings, CABAC : Yes
Format settings, ReFrames : 2 frames
Muxing mode : Header stripping
Codec ID : V_MPEG4/ISO/AVC
Duration : 1h 44mn
Bit rate : 3 874 Kbps
Width : 1 920 pixels
Height : 1 080 pixels
Display aspect ratio : 16:9
Frame rate mode : Constant
Frame rate : 23.976 fps
Color space : YUV
Chroma subsampling : 4:2:0
Bit depth : 8 bits
Scan type : Progressive
Bits/(Pixel*Frame) : 0.078
Stream size : 2.83 GiB (80%)
Writing library : x264 core
Default : Yes
Forced : No
Color primaries : BT.709
Transfer characteristics : BT.709
Matrix coefficients : BT.709
Audio #1
ID : 2
Format : AC-3
Format/Info : Audio Coding 3
Mode extension : CM (complete main)
Format settings, Endianness : Big
Muxing mode : Header stripping
Codec ID : A_AC3
Duration : 1h 44mn
Bit rate mode : Constant
Bit rate : 448 Kbps
Channel count : 6 channels
Channel positions : Front: L C R, Side: L R, LFE
Sampling rate : 48.0 KHz
Bit depth : 16 bits
Compression mode : Lossy
Stream size : 335 MiB (9%)
Language : Thai
Default : Yes
Forced : No
Audio #2
ID : 3
Format : AC-3
Format/Info : Audio Coding 3
Mode extension : CM (complete main)
Format settings, Endianness : Big
Muxing mode : Header stripping
Codec ID : A_AC3
Duration : 1h 44mn
Bit rate mode : Constant
Bit rate : 448 Kbps
Channel count : 6 channels
Channel positions : Front: L C R, Side: L R, LFE
Sampling rate : 48.0 KHz
Bit depth : 16 bits
Compression mode : Lossy
Stream size : 335 MiB (9%)
Language : English
Default : No
Forced : No
Text #1
ID : 4
Format : PGS
Muxing mode : zlib
Codec ID : S_HDMV/PGS
Codec ID/Info : The same subtitle format used on BDs/HD-DVDs
Language : English
Default : No
Forced : No
Text #2
ID : 5
Format : PGS
Muxing mode : zlib
Codec ID : S_HDMV/PGS
Codec ID/Info : The same subtitle format used on BDs/HD-DVDs
Language : Spanish
Default : Yes
Forced : No


The Protector 2 [2013][3D OU Full 1080pp]
The Protector 2 [2013][3D OU Full 1080pp]

The Protector 2 [2013][3D OU Full 1080pp]


http://www.uploadable.ch/file/7dWybtF46TEq/thprot3hd.part01.rar
http://www.uploadable.ch/file/T69BhccemfUr/thprot3hd.part02.rar
http://www.uploadable.ch/file/RAebm7bvHXjx/thprot3hd.part03.rar
http://www.uploadable.ch/file/7WFd6bQQPpvQ/thprot3hd.part04.rar
http://www.uploadable.ch/file/SYFDqjahb6fY/thprot3hd.part05.rar
http://www.uploadable.ch/file/TJWFp2ACY9jD/thprot3hd.part06.rar
http://www.uploadable.ch/file/2EpvPUwh76zE/thprot3hd.part07.rar
http://www.uploadable.ch/file/7VFn2YPdbXun/thprot3hd.part08.rar
http://www.uploadable.ch/file/vY69w7qMbzFm/thprot3hd.part09.rar
http://www.uploadable.ch/file/dDyBKGPfGJFY/thprot3hd.part10.rar
http://www.uploadable.ch/file/qPfP35MbVJ97/thprot3hd.part11.rar
http://www.uploadable.ch/file/PtjHXXQvpjZ8/thprot3hd.part12.rar
http://www.uploadable.ch/file/JcVjvrY22udY/thprot3hd.part13.rar
http://www.uploadable.ch/file/ttEdwHV47ejz/thprot3hd.part14.rar
http://www.uploadable.ch/file/pE5U8VHYfJYd/thprot3hd.part15.rar
Direct Download

Tags: Protector

Comments
Name:*
E-Mail:*
Add Comments:
Enter Code: *