Download Now


Hercules [1997][FullHD 1080p]
http://www.imdb.com/title/tt0119282/

Original title Hercules
year 1997
Duration 93 min.
Country United States
Director John Musker, Ron Clements
Guion John Musker, Ron Clements, Donald McEnery, Bob Shaw, Irene Mecchi
Alan Menken Music
photography Animation
Cast Animation
Studio Walt Disney Pictures
Genre Animation. Fantastico. Comedy. Musical. Children | Mythology. ancient Greece
Synopsis Hercules, son of Zeus and Hera, Olympian stolen by minions of Hades, with the mission of desprotegerle of his immortality. Hercules will grow into a world of deadly until it comes time to return to Olympus.



Format : Matroska
Format version : Version 4 / Version 2
File size : 2.36 GiB
Duration : 1h 33mn
Overall bit rate : 3 627 Kbps
Movie name : Hercules (1997) [1080p Dual]
Encoded date : UTC 2013-11-05 14:51:33
Writing application : mkvmerge v6.0.0 ('Coming Up For Air') built on Jan 20 2013 09:52:00
Writing library : libebml v1.3.0 + libmatroska v1.4.0
Video
ID : 1
Format : AVC
Format/Info : Advanced Video Codec
Format profile : [email protected]
Format settings, CABAC : Yes
Format settings, ReFrames : 1 frame
Codec ID : V_MPEG4/ISO/AVC
Bit rate : 2 723 Kbps
Width : 1 920 pixels
Height : 1 080 pixels
Display aspect ratio : 16:9
Frame rate mode : Variable
Original frame rate : 23.976 fps
Color space : YUV
Chroma subsampling : 4:2:0
Bit depth : 8 bits
Scan type : Progressive
Title : wWw.CinemaniaHD.org
Writing library : x264 core
Default : Yes
Forced : No
Color primaries : BT.709
Transfer characteristics : BT.709
Matrix coefficients : BT.709
Audio #1
ID : 2
Format : AC-3
Format/Info : Audio Coding 3
Mode extension : CM (complete main)
Format settings, Endianness : Big
Codec ID : A_AC3
Duration : 1h 33mn
Bit rate mode : Constant
Bit rate : 384 Kbps
Channel count : 6 channels
Channel positions : Front: L C R, Side: L R, LFE
Sampling rate : 44.1 KHz
Bit depth : 16 bits
Compression mode : Lossy
Delay relative to video : 16s 500ms
Stream size : 256 MiB (11%)
Title : Espanol Latino
Default : Yes
Forced : No
Audio #2
ID : 3
Format : AC-3
Format/Info : Audio Coding 3
Mode extension : CM (complete main)
Format settings, Endianness : Big
Codec ID : A_AC3
Duration : 1h 33mn
Bit rate mode : Constant
Bit rate : 448 Kbps
Channel count : 6 channels
Channel positions : Front: L C R, Side: L R, LFE
Sampling rate : 48.0 KHz
Bit depth : 16 bits
Compression mode : Lossy
Stream size : 299 MiB (12%)
Title : Ingles
Language : English
Default : No
Forced : No
Text #1
ID : 4
Format : VobSub
Muxing mode : zlib
Codec ID : S_VOBSUB
Codec ID/Info : The same subtitle format used on DVDs
Title : Subtitulos Espanol
Default : No
Forced : No
Text #2
ID : 5
Format : VobSub
Muxing mode : zlib
Codec ID : S_VOBSUB
Codec ID/Info : The same subtitle format used on DVDs
Title : Subtitulos Ingles
Default : No
Forced : No
Text #3
ID : 6
Format : UTF-8
Codec ID : S_TEXT/UTF8
Codec ID/Info : UTF-8 Plain Text
Default : Yes
Forced : No


Hercules [1997][FullHD 1080p]
Hercules [1997][FullHD 1080p]

Hercules [1997][FullHD 1080p]


http://www.uploadable.ch/file/arpWDHWh4yRD/hercgfhkhd.part01.rar
http://www.uploadable.ch/file/7Mrb4cRFCsJp/hercgfhkhd.part02.rar
http://www.uploadable.ch/file/AswjXSxZYX7d/hercgfhkhd.part03.rar
http://www.uploadable.ch/file/cDavFFZygtBd/hercgfhkhd.part04.rar
http://www.uploadable.ch/file/dzx4pm3B6DCu/hercgfhkhd.part05.rar
http://www.uploadable.ch/file/b7u2wB3Vz5fy/hercgfhkhd.part06.rar
http://www.uploadable.ch/file/7YqpKYk3wQfT/hercgfhkhd.part07.rar
http://www.uploadable.ch/file/cTD7ja4WmDYH/hercgfhkhd.part08.rar
http://www.uploadable.ch/file/S9XYeTAXYNb3/hercgfhkhd.part09.rar
http://www.uploadable.ch/file/zz6BNJhUVVck/hercgfhkhd.part10.rar

Direct Download

Tags: Hercules, FullHD

Comments
Name:*
E-Mail:*
Add Comments:
Enter Code: *