Download Now


Transporter 3 [2008][FullHD 1080p]
http://www.imdb.com/title/tt1129442/

Original title Transporter III (Transporter 3)
year 2008
Duration 100 min.
Country: France
Director Olivier Megaton
Guion Robert Mark Kamen, Luc Besson
Music Alexandre Azaria
Giovanni Fiore Photography Coltellacci
Starring Jason Statham, Natalya Rudakova, Robert Knepper, Justin Rodgers Hall, Francois Berleand, Eriq Ebouaney, Katia Tchenko, Mike Powers, Gregory Loffredo, David Atrakchi
Production Europa Corp.
Genre Action | Sequel
Synopsis Frank Martin (Jason Statham) is an undisputed specialist in high-risk deliveries. This time will be forced, under threat, to move two bulky bags and a young Ukrainian, Valentina (Natalya Rudakova), from Marseilles to Odessa. What's in the bags? Who's the girl? What's behind this release? Frank does not know the answers, but do not really know what is the trap that has set him the most ruthless and dangerous opponent who has never been found.



Complete name : El Transportador 3 (2008) 1080p Dual.mkv
Format : Matroska
Format version : Version 2
File size : 2.85 GiB
Duration : 1h 43mn
Overall bit rate : 3 923 Kbps
Movie name : The Transporter 3 [2008][1080p Dual]
Encoded date : UTC 2013-12-12 00:42:52
Writing application : mkvmerge v5.7.0 ('The Whirlwind') built on Jul 8 2012 20:08:51
Writing library : libebml v1.2.3 + libmatroska v1.3.0
Video
ID : 1
Format : AVC
Format/Info : Advanced Video Codec
Format profile : [email protected]
Format settings, CABAC : Yes
Format settings, ReFrames : 4 frames
Muxing mode : Header stripping
Codec ID : V_MPEG4/ISO/AVC
Duration : 1h 43mn
Bit rate : 2 949 Kbps
Nominal bit rate : 3 100 Kbps
Width : 1 920 pixels
Height : 1 080 pixels
Display aspect ratio : 16:9
Frame rate mode : Constant
Frame rate : 23.976 fps
Color space : YUV
Chroma subsampling : 4:2:0
Bit depth : 8 bits
Scan type : Progressive
Bits/(Pixel*Frame) : 0.059
Stream size : 2.14 GiB (75%)
Writing library : x264 core 130 r2273 b3065e6
Default : Yes
Forced : No
Color primaries : BT.709
Transfer characteristics : BT.709
Matrix coefficients : BT.709
Audio #1
ID : 2
Format : AC-3
Format/Info : Audio Coding 3
Mode extension : CM (complete main)
Format settings, Endianness : Big
Muxing mode : Header stripping
Codec ID : A_AC3
Duration : 1h 43mn
Bit rate mode : Constant
Bit rate : 448 Kbps
Channel count : 6 channels
Channel positions : Front: L C R, Side: L R, LFE
Sampling rate : 48.0 KHz
Bit depth : 16 bits
Compression mode : Lossy
Stream size : 333 MiB (11%)
Title : Espanol Latino
Default : Yes
Forced : No
Audio #2
ID : 3
Format : AC-3
Format/Info : Audio Coding 3
Mode extension : CM (complete main)
Format settings, Endianness : Big
Muxing mode : Header stripping
Codec ID : A_AC3
Duration : 1h 43mn
Bit rate mode : Constant
Bit rate : 448 Kbps
Channel count : 6 channels
Channel positions : Front: L C R, Side: L R, LFE
Sampling rate : 48.0 KHz
Bit depth : 16 bits
Compression mode : Lossy
Stream size : 333 MiB (11%)
Title : Ingles
Default : No
Forced : No
Text #1
ID : 4
Format : UTF-8
Codec ID : S_TEXT/UTF8
Codec ID/Info : UTF-8 Plain Text
Default : Yes
Forced : No
Text #2
ID : 5
Format : VobSub
Muxing mode : zlib
Codec ID : S_VOBSUB
Codec ID/Info : The same subtitle format used on DVDs
Title : Subtitulos Espanol
Default : No
Forced : No


Transporter 3 [2008][FullHD 1080p]
Transporter 3 [2008][FullHD 1080p]

Transporter 3 [2008][FullHD 1080p]




http://www.uploadable.ch/file/FG8zaUEzu8gh/etrapo3hd.part01.rar
http://www.uploadable.ch/file/z3NzfKADVXjv/etrapo3hd.part02.rar
http://www.uploadable.ch/file/gKuMxQpGRU4A/etrapo3hd.part03.rar
http://www.uploadable.ch/file/87dPjcw7ApAK/etrapo3hd.part04.rar
http://www.uploadable.ch/file/Dyd6nfWxXaBU/etrapo3hd.part05.rar
http://www.uploadable.ch/file/naSjMmrJmVhD/etrapo3hd.part06.rar
http://www.uploadable.ch/file/cGHpRcSFu2sj/etrapo3hd.part07.rar
http://www.uploadable.ch/file/A8Rt5qydstES/etrapo3hd.part08.rar
http://www.uploadable.ch/file/EF9Kz2wPh26y/etrapo3hd.part09.rar
http://www.uploadable.ch/file/KeNejSChUazx/etrapo3hd.part10.rar
http://www.uploadable.ch/file/dEWvMRXBpQdK/etrapo3hd.part11.rar
http://www.uploadable.ch/file/NvEzV9DnKAqj/etrapo3hd.part12.rar
Direct Download

Tags: Transporter, FullHD

Comments
Name:*
E-Mail:*
Add Comments:
Enter Code: *