Download Now


The Croods [2013][FullHD 1080p]
http://www.imdb.com/title/tt0481499/

Original title The Croods
year 2013
Duration 90 min.
Country United States
Director Kirk De Micco, Chris Sanders
Guion Kirk De Micco, Chris Sanders (Story: John Cleese, Kirk De Micco, Chris Sanders)
Music Alan Silvestri
Yong Duk Jhun Photography
Cast Animation
DreamWorks Animation Production
Genre Animation. Adventures. Comedy | Prehistory. Family. 3-D
Synopsis Prehistory. After the destruction of his home by a great earthquake, Grug is forced to emigrate with his family. As they move through an unknown and terrifying world, they encounter a open minded nomad that leaves everyone mesmerized, especially the daughter of Grug.



Complete name : The Croods (2013) 1080p Dual.mkv
Format : Matroska
Format version : Version 2
File size : 2.69 GiB
Duration : 1h 38mn
Overall bit rate : 3 909 Kbps
Movie name : The Croods [2013][1080p Dual]
Encoded date : UTC 2013-12-05 03:02:29
Writing application : mkvmerge v5.7.0 ('The Whirlwind') built on Jul 8 2012 20:08:51
Writing library : libebml v1.2.3 + libmatroska v1.3.0
Video
ID : 1
Format : AVC
Format/Info : Advanced Video Codec
Format profile : [email protected]
Format settings, CABAC : Yes
Format settings, ReFrames : 4 frames
Muxing mode : Header stripping
Codec ID : V_MPEG4/ISO/AVC
Duration : 1h 38mn
Bit rate : 2 900 Kbps
Width : 1 920 pixels
Height : 1 080 pixels
Display aspect ratio : 16:9
Frame rate mode : Constant
Frame rate : 23.976 fps
Color space : YUV
Chroma subsampling : 4:2:0
Bit depth : 8 bits
Scan type : Progressive
Bits/(Pixel*Frame) : 0.058
Stream size : 1.93 GiB (72%)
Writing library : x264 core 130 r2273 b3065e6
Default : Yes
Forced : No
Color primaries : BT.709
Transfer characteristics : BT.709
Matrix coefficients : BT.709
Audio #1
ID : 2
Format : AC-3
Format/Info : Audio Coding 3
Mode extension : CM (complete main)
Format settings, Endianness : Big
Muxing mode : Header stripping
Codec ID : A_AC3
Duration : 1h 38mn
Bit rate mode : Constant
Bit rate : 512 Kbps
Channel count : 6 channels
Channel positions : Front: L C R, Side: L R, LFE
Sampling rate : 48.0 KHz
Bit depth : 16 bits
Compression mode : Lossy
Stream size : 361 MiB (13%)
Title : Espanol Latino
Default : Yes
Forced : No
Audio #2
ID : 3
Format : AC-3
Format/Info : Audio Coding 3
Mode extension : CM (complete main)
Format settings, Endianness : Big
Muxing mode : Header stripping
Codec ID : A_AC3
Duration : 1h 38mn
Bit rate mode : Constant
Bit rate : 512 Kbps
Channel count : 6 channels
Channel positions : Front: L C R, Side: L R, LFE
Sampling rate : 48.0 KHz
Bit depth : 16 bits
Compression mode : Lossy
Stream size : 361 MiB (13%)
Title : Ingles
Default : No
Forced : No
Text #1
ID : 4
Format : UTF-8
Codec ID : S_TEXT/UTF8
Codec ID/Info : UTF-8 Plain Text
Default : Yes
Forced : No
Text #2
ID : 5
Format : UTF-8
Codec ID : S_TEXT/UTF8
Codec ID/Info : UTF-8 Plain Text
Title : Subtitulos Espanol
Default : No
Forced : No


The Croods [2013][FullHD 1080p]
The Croods [2013][FullHD 1080p]

The Croods [2013][FullHD 1080p]




http://www.uploadable.ch/file/McvWhbNDF2NU/loscroogdhd.part01.rar
http://www.uploadable.ch/file/JmP7eT67ZZbU/loscroogdhd.part02.rar
http://www.uploadable.ch/file/6cxr26svZrxd/loscroogdhd.part03.rar
http://www.uploadable.ch/file/QH2VqPMP4E4Q/loscroogdhd.part04.rar
http://www.uploadable.ch/file/UXdWHrxDNvVa/loscroogdhd.part05.rar
http://www.uploadable.ch/file/y8GZ8SW4Z8Cr/loscroogdhd.part06.rar
http://www.uploadable.ch/file/BgTPCVgP65eK/loscroogdhd.part07.rar
http://www.uploadable.ch/file/jPEb7rxCZfRy/loscroogdhd.part08.rar
http://www.uploadable.ch/file/3J2AKfapwfpn/loscroogdhd.part09.rar
http://www.uploadable.ch/file/pvcsM4SR3Fy9/loscroogdhd.part10.rar
http://www.uploadable.ch/file/3VrVFaGnC68Z/loscroogdhd.part11.rar
Direct Download

Tags: Croods, FullHD

Comments
Name:*
E-Mail:*
Add Comments:
Enter Code: *