Download Now


Battle of the Year The Dream Team [2013][FullHD 1080p]
http://www.imdb.com/title/tt1532958/

Original title Battle of the Year: The Dream Team
Year 2013
Length 109 min.
Country United States
Director Benson Lee
Guion Chris Parker, Brin Hill
Christopher Lennertz Music
Michael Barrett Photography
Starring Josh Peck, Josh Holloway, Chris Brown, Laz Alonso, Caity Lotz, Terrence Jenkins, Weronika Rosati, Luis Rosado, Ivan 'Flipz' Velez, Jesse Erwin, Alex Martin, Steve Terada, Giovanni V. Giusti, Marcus Nel-Jamal Hamm David Kim
Production Contrafilm
Musical genre. Drama | Hip Hop. Music
Synopsis "The battle of the year" is about the Olympic Games break dance, a tournament that is held every year and attracts top teams from around the world; Americans have not won in fifteen years. Los Angeles mogul and former Hip Hop B-Boy Dante (Alonso) want to put the country that started the sport at the top. He asks his friend Blake (Holloway) Championship basketball coach, somewhat jinxed, to help train your team. Convinced that a theory right coach can turn any team champion, form the ideal team all the best b-boys in the country. With only three months until the battle of the year, Blake has to use all the tactics you know to choose twelve talented people to form a team, if they want to bring the trophy back to the United States. The film is inspired by the world championship break dance, held every year in France.



Format : Matroska
Format version : Version 4 / Version 2
File size : 3.06 GiB
Duration : 1h 49mn
Overall bit rate : 3 995 Kbps
Movie name : Battle of the Year The.Dream Team (2013) [FULL 1080p Dual]
Encoded date : UTC 2013-11-24 23:19:48
Writing application : mkvmerge v6.0.0 ('Coming Up For Air') built on Jan 20 2013 09:52:00
Writing library : libebml v1.3.0 + libmatroska v1.4.0
Video
ID : 1
Format : AVC
Format/Info : Advanced Video Codec
Format profile : [email protected]
Format settings, CABAC : Yes
Format settings, ReFrames : 2 frames
Codec ID : V_MPEG4/ISO/AVC
Duration : 1h 49mn
Bit rate : 2 956 Kbps
Width : 1 920 pixels
Height : 1 080 pixels
Display aspect ratio : 16:9
Frame rate mode : Constant
Frame rate : 23.976 fps
Color space : YUV
Chroma subsampling : 4:2:0
Bit depth : 8 bits
Scan type : Progressive
Bits/(Pixel*Frame) : 0.059
Stream size : 2.26 GiB (74%)
Writing library : x264 core
Default : Yes
Forced : No
Color primaries : BT.709
Transfer characteristics : BT.709
Matrix coefficients : BT.709
Audio #1
ID : 2
Format : AC-3
Format/Info : Audio Coding 3
Mode extension : CM (complete main)
Format settings, Endianness : Big
Codec ID : A_AC3
Duration : 1h 49mn
Bit rate mode : Constant
Bit rate : 640 Kbps
Channel count : 6 channels
Channel positions : Front: L C R, Side: L R, LFE
Sampling rate : 48.0 KHz
Bit depth : 16 bits
Compression mode : Lossy
Stream size : 502 MiB (16%)
Title : Audio Latino
Default : Yes
Forced : No
Audio #2
ID : 3
Format : AC-3
Format/Info : Audio Coding 3
Mode extension : CM (complete main)
Format settings, Endianness : Big
Codec ID : A_AC3
Duration : 1h 49mn
Bit rate mode : Constant
Bit rate : 320 Kbps
Channel count : 6 channels
Channel positions : Front: L C R, Side: L R, LFE
Sampling rate : 44.1 KHz
Bit depth : 16 bits
Compression mode : Lossy
Stream size : 251 MiB (8%)
Title : Audio Ingles
Default : No
Forced : No
Text #1
ID : 4
Format : VobSub
Muxing mode : zlib
Codec ID : S_VOBSUB
Codec ID/Info : The same subtitle format used on DVDs
Title : Subtitulos Latino
Default : No
Forced : No
Text #2
ID : 5
Format : VobSub
Muxing mode : zlib
Codec ID : S_VOBSUB
Codec ID/Info : The same subtitle format used on DVDs
Title : Subtitulos Ingles
Default : No
Forced : No
Text #3
ID : 6
Format : UTF-8
Codec ID : S_TEXT/UTF8
Codec ID/Info : UTF-8 Plain Text
Default : Yes
Forced : No


Battle of the Year The Dream Team [2013][FullHD 1080p]
Battle of the Year The Dream Team [2013][FullHD 1080p]

Battle of the Year The Dream Team [2013][FullHD 1080p]




http://www.uploadable.ch/file/xh49AFytdcQH/battoyehd.part01.rar
http://www.uploadable.ch/file/UubkJkuNQ95W/battoyehd.part02.rar
http://www.uploadable.ch/file/CXhRBK3peTe6/battoyehd.part03.rar
http://www.uploadable.ch/file/MYjYQH2HSzdn/battoyehd.part04.rar
http://www.uploadable.ch/file/439xHgF5EeS4/battoyehd.part05.rar
http://www.uploadable.ch/file/rMbe5SxXQjAW/battoyehd.part06.rar
http://www.uploadable.ch/file/ZJeUMMKJ9HxU/battoyehd.part07.rar
http://www.uploadable.ch/file/A2ZcRgDPCwr8/battoyehd.part08.rar
http://www.uploadable.ch/file/mXQcHvkBGkbj/battoyehd.part09.rar
http://www.uploadable.ch/file/AmHURrN8NkE6/battoyehd.part10.rar
http://www.uploadable.ch/file/TBzGWXtvY4Tt/battoyehd.part11.rar
http://www.uploadable.ch/file/PjS7ZvS6SwpH/battoyehd.part12.rar
http://www.uploadable.ch/file/PUy3nTrpQ5Z4/battoyehd.part13.rar
Direct Download

Tags: Battle, FullHD

Comments
Name:*
E-Mail:*
Add Comments:
Enter Code: *